Топ Топиков за 24 часа
 
Luis Fonsi - Despacito ft. Daddy Yankee (2017) WEBRip 1080p | 60 fps Jennifer Lopez feat. Gente de Zona - Ni Tu Ni Yo (2017) WEBRip 1080p | 60 fps Katy Perry - Dark Horse (2014) Full HD 1080p | 60 fps DJ Khaled feat. Rihanna & Bryson Tiller - Wild Thoughts (2017) Full HD 1080p | 60 fps Inna - Gimme Gimme (2017) Full HD 1080p | 60 fps Rihanna - Needed Me (2016) Full HD 1080p | 60 fps Loboda - Твои Глаза (2016) WEBRip 1080p | 60 fps Taylor Swift - Look What You Made Me Do (2017) WEBRip 1080p | 60 fps Taylor Swift - …Ready For It? (2017) WEBRip 1080p | 60 fps Selena Gomez - Bad Liar (2017) WEBRip 1080p | 60 fps Iggy Azalea - Mo Bounce (2017) Full HD 1080p | 60 fps Snoop Dogg - Wet (2011) Full HD 1080p | 60 fps
  1. Стаж:
    2 года 10 месяцев
    Сообщений:
    284
    Пол:
    Мужской
     
    Shahrukh feat. Deepika - Love Mera Hit Hit (2009) BDRip 1080p | 60 fps

    Информация о Клипе:
    Исполнители:Shahrukh Khan, Deepika Padukone
    Название: Love Mera Hit Hit (OST "Billu Barber")
    Год выпуска: 2009 г.
    Жанр: Поп
    Страна: Индия
    Продолжительность: 5 м. 1 с.

    Файл:
    Формат видео: MKV
    Качество видео: BDRip 1080p | 60 fps
    Видео кодек: H.264
    Аудио кодек: AC3
    Видео: 1904x800 | 59.940 fps | 9500 Кбит/сек
    Аудио: AC3 | 6 channels | 48 kHz | 640 Кбит/сек

    Автор Рипа:Kamikkadze

    MediaInfo

    Видео
    Идентификатор : 1
    Формат : AVC
    Формат/Информация : Advanced Video Codec
    Профиль формата : High@L4.2
    Параметр CABAC формата : Да
    Параметр ReFrames формата : 4 кадра
    Идентификатор кодека : V_MPEG4/ISO/AVC
    Продолжительность : 5 м. 1 с.
    Битрейт : 9500 Кбит/сек
    Ширина : 1904 пикселя
    Высота : 800 пикселей
    Соотношение сторон : 2,40:1
    Режим частоты кадров : Постоянный
    Частота кадров : 60,000 кадров/сек
    Цветовое пространство : YUV
    Субдискретизация насыщенности : 4:2:0
    Битовая глубина : 8 бит
    Тип развёртки : Прогрессивная
    Бит/(Пиксели*Кадры) : 0.104
    Размер потока : 336 Мбайт (92%)
    Заголовок : Rip By Kamikkadze(Специально для проекта 60-fps.org)
    Библиотека кодирования : x264 core 146 r2538 121396c
    Настройки программы : cabac=1 / ref=3 / deblock=1:0:0 / analyse=0x3:0x113 / me=hex / subme=7 / psy=1 / psy_rd=1.00:0.00 / mixed_ref=1 / me_range=16 / chroma_me=1 / trellis=1 / 8x8dct=1 / cqm=0 / deadzone=21,11 / fast_pskip=1 / chroma_qp_offset=-2 / threads=6 / lookahead_threads=1 / sliced_threads=0 / nr=0 / decimate=1 / interlaced=0 / bluray_compat=0 / constrained_intra=0 / bframes=3 / b_pyramid=2 / b_adapt=1 / b_bias=0 / direct=1 / weightb=1 / open_gop=0 / weightp=2 / keyint=250 / keyint_min=25 / scenecut=40 / intra_refresh=0 / rc_lookahead=40 / rc=2pass / mbtree=1 / bitrate=9500 / ratetol=1.0 / qcomp=0.60 / qpmin=0 / qpmax=69 / qpstep=4 / cplxblur=20.0 / qblur=0.5 / ip_ratio=1.40 / aq=1:1.00
    Default : Да
    Forced : Нет
    Аудио
    Идентификатор : 2
    Формат : AC-3
    Формат/Информация : Audio Coding 3
    Расширение режима : CM (complete main)
    Параметр Endianness формата : Big
    Идентификатор кодека : A_AC3
    Продолжительность : 5 м. 1 с.
    Вид битрейта : Постоянный
    Битрейт : 640 Кбит/сек
    Каналы : 6 каналов
    Расположение каналов : Front: L C R, Side: L R, LFE
    Частота : 48,0 КГц
    Битовая глубина : 16 бит
    Метод сжатия : С потерями
    Размер потока : 23,0 Мбайт (6%)
    Заголовок : Rip By Kamikkadze(Специально для проекта 60-fps.org)
    Default : Да
    Forced : Нет
    Просьба к переливающим на другие сайты, в оформлении указывайте пожалуйста авторство рипа - Kamikkadze
  2. Стаж:
    2 года 7 месяцев
    Сообщений:
    1
    Пол:
    Мужской
     
    Большущее СПАСИБО !!!
    Давно хотел наконец-то посмотреть этот позитивный клипец в хорошем качестве.
    06-Май-2015 14:06 (спустя 14 часов)
  3. Стаж:
    2 года 10 месяцев
    Сообщений:
    284
    Пол:
    Мужской
     
    2506Большущее СПАСИБО !!!
    Давно хотел наконец-то посмотреть этот позитивный клипец в хорошем качестве.
    Начанинаем разгребать стол заказов)
    06-Май-2015 14:38 (спустя 32 минуты)


Вы не можете начинать темы
Вы не можете отвечать на сообщения
Вы не можете редактировать свои сообщения
Вы не можете удалять свои сообщения
Вы не можете голосовать в опросах
Вы не можете прикреплять файлы к сообщениям
Вы не можете скачивать файлы