[Цитировать]
Kryl

«Знание - сила, всезнание - власть»- Информация
Название: Сфера
Оригинальное название: The Circle
Год выхода: 2017
Жанр: Фантастика, триллер, драма
Режиссер: Джеймс Понсольдт
Сценарий: Дэйв Эггерс, Джеймс Понсольдт
Продюсер: Стефани Аспиазу, Энтони Брегман, Питер Крон
В ролях: Карен Гиллан, Эмма Уотсон, Том Хэнкс, Джон Бойега, Эллар Колтрейн, Эллен Вонг, Билл Пэкстон, Пэттон Освальт, Гленн Хедли, Пурна Джаганнатхан
--Сюжет:
Фильм расскажет об интернет-компании The Circle, объединяющей в единую систему электронную почту своих пользователей, странички в социальных сетях, информацию о банковских картах и покупках. Результатом этого процесса становится получение человеком универсального онлайн-идентификатора. Но на практике не все так гладко: проект, позиционируемый как новая ступень в развитии технологий, преследует и другие, более грязные цели.
-Страна: ОАЭ, США
Продолжительность: 01:49:47

Файл
Кодек: MPEG4/ISO/AVC/H.264
Формат: MKV
Качество: BDRip 720p | 60 fps
Видео: 1280 x 534 (2.397) | 59.940 fps | 10.0 Мбит/сек
Аудио 1: AC3 | 2.0 | 48 kHz | 192 kbps | 16 bit | Дубляж - iTunes |
Аудио 2: AC3 | 2.0 | 48 kHz | 256 kbps | 16 bit | Eng |

MedifInfo

Видео
Идентификатор : 1
Формат : AVC
Формат/Информация : Advanced Video Codec
Профиль формата : High@L4.1
Параметр CABAC формата : Да
Параметр ReFrames формата : 5 кадров
Идентификатор кодека : V_MPEG4/ISO/AVC
Продолжительность : 1 ч. 49 м.
Битрейт : 9999 Кбит/сек
Ширина : 1280 пикселей
Высота : 534 пикселя
Соотношение сторон : 2,40:1
Режим частоты кадров : Постоянный
Частота кадров : 59,880 кадров/сек
Частота кадров в оригинале : 59,940 кадров/сек
Цветовое пространство : YUV
Субдискретизация насыщенности : 4:2:0
Битовая глубина : 8 бит
Тип развёртки : Прогрессивная
Бит/(Пиксели*Кадры) : 0.244
Размер потока : 7,50 Гбайт (94%)
Заголовок : www.60-fps.org
Библиотека кодирования : x264 core 148 r2744 b97ae06
Настройки программы : cabac=1 / ref=5 / deblock=1:-3:-3 / analyse=0x3:0x113 / me=umh / subme=8 / psy=1 / psy_rd=1.00:0.25 / mixed_ref=1 / me_range=32 / chroma_me=1 / trellis=1 / 8x8dct=1 / cqm=0 / deadzone=6,6 / fast_pskip=1 / chroma_qp_offset=-4 / threads=12 / lookahead_threads=2 / sliced_threads=0 / nr=0 / decimate=0 / interlaced=0 / bluray_compat=0 / constrained_intra=0 / bframes=3 / b_pyramid=2 / b_adapt=1 / b_bias=0 / direct=3 / weightb=1 / open_gop=0 / weightp=2 / keyint=599 / keyint_min=59 / scenecut=40 / intra_refresh=0 / rc_lookahead=50 / rc=2pass / mbtree=1 / bitrate=9999 / ratetol=1.0 / qcomp=0.80 / qpmin=0 / qpmax=69 / qpstep=4 / cplxblur=20.0 / qblur=0.5 / vbv_maxrate=62500 / vbv_bufsize=78125 / nal_hrd=none / filler=0 / ip_ratio=1.10 / aq=1:0.50
Default : Да
Forced : Нет
Аудио #1
Идентификатор : 2
Формат : AC-3
Формат/Информация : Audio Coding 3
Расширение режима : CM (complete main)
Параметр Endianness формата : Big
Идентификатор кодека : A_AC3
Продолжительность : 1 ч. 49 м.
Вид битрейта : Постоянный
Битрейт : 192 Кбит/сек
Каналы : 2 канала
Расположение каналов : Front: L R
Частота : 48,0 КГц
Битовая глубина : 16 бит
Метод сжатия : С потерями
Размер потока : 151 Мбайт (2%)
Заголовок : Дубляж - iTunes
Язык : Russian
Default : Да
Forced : Нет
Аудио #2
Идентификатор : 3
Формат : AC-3
Формат/Информация : Audio Coding 3
Расширение режима : CM (complete main)
Параметр Endianness формата : Big
Идентификатор кодека : A_AC3
Продолжительность : 1 ч. 49 м.
Вид битрейта : Постоянный
Битрейт : 256 Кбит/сек
Каналы : 2 канала
Расположение каналов : Front: L R
Частота : 48,0 КГц
Битовая глубина : 16 бит
Метод сжатия : С потерями
Размер потока : 201 Мбайт (2%)
Язык : English
Default : Нет
Forced : Нет

Релиз подготовлен 60 - fps

[Цитировать]
hanzalah

SEEDDDSS PLEASE

[Цитировать]
mateus1

Смеюсь Смеюсь

[Цитировать]
Savage

Встаньте на раздачу или что там, а то стоят четверо, у всех скорость НОЛЬ. На паузе что ли? Сомневаюсь

[Цитировать]
Cynep

Неплохой фильм, но ожидал большего

[Цитировать]
Savage

Товарищи, дайте докачать 1 гиг осталось, утром некогда было выключил комп, сейчас двое -трое стоят 5-10 килобайт в секунду, больше не дают. хотя бы на 20-30 минут снимите граничения отдачи.
 
Показать сообщения:    

Текущее время: 21-Сен 15:29

Часовой пояс: UTC + 3


Вы не можете начинать темы
Вы не можете отвечать на сообщения
Вы не можете редактировать свои сообщения
Вы не можете удалять свои сообщения
Вы не можете голосовать в опросах
Вы не можете прикреплять файлы к сообщениям
Вы не можете скачивать файлы