1. Longevity:
    4 years 10 months
    Posts:
    336
    Gender:
    Male
    Информация
    Название: Семейный бюджет
    Оригинальное название: Семейный бюджет
    Год выхода: 2021
    Жанр: Комедия
    Режиссер: Евгений Абызов
    В ролях: Юлия Александрова, Антон Филипенко, Валентина Ляпина, Георгий Стрелянный, Feduk, Сергей Степин, Сергей Епишев, Арсений Попов, Ангелина Миримская, Александр Лыков
    Страна: Россия
    Продолжительность: 1 ч. 46 м. 59 с.
    ------ Сюжет:
    Дружная семья из Краснодара – мама-преподаватель фортепиано, папа-конструктор аттракционов, дочь-блогер и сын-романтик – как и многие, покупает квартиру в ипотеку. Однако скоро оказывается, что платить за неё нечем. Теперь ради того, чтобы не остаться на улице, Фроловы идут на всё. Прожить неделю всей семьёй на 200 рублей? Легко! Сыграть классический концерт в костюме осьминога? Без проблем! Стать звездой соцсетей? Можно и звездой. Денежные приключения Фроловых превращаются в комедийный курс финансовой грамотности для всех российских семей. ------ Файл
    Кодек: V_MPEG4/ISO/AVC
    Формат: MKV
    Качество: WEB-DL 1080p | 60 fps
    Видео: 1920 x 808 (2,40:1) | 59.940 fps | 25 Мбит/сек
    Аудио 1: 48 kHz, AC3 Dolby Digital, 3/2 (L, C, R, l, r) + LFE ch, ~448 Kbps | Оригинал | RUS |
    Аудио 2: 48 kHz, Е-AC3 Dolby Digital, 3/2 (L, C, R, l, r) + LFE ch, ~448 Kbps | Оригинал | RUS |

    MedifInfo

    Общее
    Уникальный идентификатор : 175036028732413918417470847405454178735 (0x83AEB681277F7F4C98435FE39226B9AF)
    Полное имя : D:\Movie\Семейный бюджет 2021.mkv
    Формат : Matroska
    Версия формата : Version 2
    Размер файла : 19,4 Гбайт
    Продолжительность : 1 ч. 47 м.
    Общий поток : 25,9 Мбит/сек
    Название фильма : Семейный бюджет (2021)
    Дата кодирования : UTC 2021-11-06 08:24:22
    Программа кодирования : mkvmerge v5.8.0 ('No Sleep / Pillow') built on Sep 2 2012 15:37:04
    Библиотека кодирования : libebml v1.2.3 + libmatroska v1.3.0
    Attachments : Poster.jpg
    Видео
    Идентификатор : 1
    Формат : AVC
    Формат/Информация : Advanced Video Codec
    Профиль формата : High@L4.1
    Параметр CABAC формата : Да
    Параметр ReFrames формата : 5 кадров
    Режим смешивания : Header stripping
    Идентификатор кодека : V_MPEG4/ISO/AVC
    Продолжительность : 1 ч. 47 м.
    Битрейт : 25,0 Мбит/сек
    Ширина : 1920 пикселей
    Высота : 808 пикселей
    Соотношение сторон : 2,40:1
    Режим частоты кадров : Постоянный
    Частота кадров : 60,000 кадров/сек
    Цветовое пространство : YUV
    Субдискретизация насыщенности : 4:2:0
    Битовая глубина : 8 бит
    Тип развёртки : Прогрессивная
    Бит/(Пиксели*Кадры) : 0.269
    Размер потока : 18,3 Гбайт (95%)
    Библиотека кодирования : x264 core 146 r2538 121396c
    Настройки программы : cabac=1 / ref=5 / deblock=1:0:0 / analyse=0x3:0x113 / me=umh / subme=8 / psy=1 / psy_rd=1.00:0.25 / mixed_ref=1 / me_range=32 / chroma_me=1 / trellis=1 / 8x8dct=1 / cqm=0 / deadzone=6,6 / fast_pskip=1 / chroma_qp_offset=-4 / threads=12 / lookahead_threads=3 / sliced_threads=0 / nr=0 / decimate=0 / interlaced=0 / bluray_compat=0 / constrained_intra=0 / bframes=3 / b_pyramid=2 / b_adapt=2 / b_bias=0 / direct=3 / weightb=1 / open_gop=0 / weightp=2 / keyint=600 / keyint_min=60 / scenecut=40 / intra_refresh=0 / rc_lookahead=50 / rc=2pass / mbtree=1 / bitrate=25000 / ratetol=1.0 / qcomp=0.80 / qpmin=0 / qpmax=69 / qpstep=4 / cplxblur=20.0 / qblur=0.5 / vbv_maxrate=50000 / vbv_bufsize=50000 / nal_hrd=none / filler=0 / ip_ratio=1.10 / aq=1:0.50
    Язык : English
    Default : Да
    Forced : Нет
    Аудио #1
    Идентификатор : 2
    Формат : AC-3
    Формат/Информация : Audio Coding 3
    Расширение режима : CM (complete main)
    Параметр Endianness формата : Big
    Режим смешивания : Header stripping
    Идентификатор кодека : A_AC3
    Продолжительность : 1 ч. 47 м.
    Вид битрейта : Постоянный
    Битрейт : 448 Кбит/сек
    Каналы : 6 каналов
    Расположение каналов : Front: L C R, Side: L R, LFE
    Частота : 48,0 КГц
    Частота кадров : 31,250 кадров/сек (1536 spf)
    Битовая глубина : 16 бит
    Метод сжатия : С потерями
    Размер потока : 343 Мбайт (2%)
    Язык : Russian
    Default : Да
    Forced : Нет
    Statistics Tags Issue : mkvmerge v7.3.0 ('Nouages') 64bit built on Oct 22 2014 18:53:34 2021-11-03 16:12:24 / mkvmerge v5.8.0 ('No Sleep / Pillow') built on Sep 2 2012 15:37:04 2021-11-06 08:24:22
    FromStats_BitRate : 448000
    FromStats_Duration : 01:47:00.064000000
    FromStats_FrameCount : 200627
    FromStats_StreamSize : 359523584
    Аудио #2
    Идентификатор : 3
    Формат : E-AC-3
    Формат/Информация : Enhanced Audio Coding 3
    Параметр Endianness формата : Big
    Режим смешивания : Header stripping
    Идентификатор кодека : A_EAC3
    Продолжительность : 1 ч. 47 м.
    Вид битрейта : Постоянный
    Битрейт : 448 Кбит/сек
    Каналы : 6 каналов
    Расположение каналов : Front: L C R, Side: L R, LFE
    Частота : 48,0 КГц
    Частота кадров : 187,500 кадров/сек (256 spf)
    Метод сжатия : С потерями
    Размер потока : 343 Мбайт (2%)
    Язык : Russian
    Default : Нет
    Forced : Нет
    Statistics Tags Issue : mkvmerge v7.3.0 ('Nouages') 64bit built on Oct 22 2014 18:53:34 2021-11-03 16:12:24 / mkvmerge v5.8.0 ('No Sleep / Pillow') built on Sep 2 2012 15:37:04 2021-11-06 08:24:22
    FromStats_BitRate : 448000
    FromStats_Duration : 01:47:00.000000000
    FromStats_FrameCount : 200625
    FromStats_StreamSize : 359520000

    Release was prepared by 60-fps.org



You cannot post new topics in this forum
You cannot reply to topics in this forum
You cannot edit your posts in this forum
You cannot delete your posts in this forum
You cannot vote in polls in this forum
You cannot attach files in this forum
You cannot download files in this forum