[Цитировать]
sir.zelyony

«Если они не эволюционируют, то станут историей»-Семейка Крудс / The Croods
Год выпуска: 2013 г.
Жанр: мультфильм, фэнтези, комедия, приключения, семейный
Страна: США
Режиссер: Кирк де Микко, Крис Сандерс
Продолжительность: 01:38:36
Перевод: Профессиональный (дублированный)
В ролях: Николас Кейдж, Эмма Стоун, Райан Рейнольдс, Кэтрин Кинер, Клорис Личмен, Кларк Дьюк, Крис Сандерс, Рэнди Том
Описание: Землетрясение уничтожило дом доисторической семьи, и теперь Крудсам придётся искать другое пристанище. А вокруг новый и опасный мир! Им на помощь приходит молодой кочевник Малой, передовые взгляды которого наталкиваются на консервативность главы семьи Груга. Но только вместе они смогут выжить и достичь своей цели… --ФАЙЛ
Формат видео: MKV
Качество видео: BDRip 720p | 60fps
Видео кодек: H.264
Аудио кодек: AC3
Видео: 1280x544 (2.35:1) | 59.940 fps | 5150 kbps
Аудио 1: AC3 | 5.1 | 48.0 kHz | 448 kbps | 16 bits | Dub
Аудио 2: AC3 | 5.1 | 48.0 kHz | 448 kbps | 16 bits | Dub
Аудио 3: AC3 | 5.1 | 48.0 kHz | 448 kbps | 16 bits | Volodarskiy
Аудио 4: AC3 | 5.1 | 48.0 kHz | 640 kbps | 16 bits | Original
Cубтитры: русские, украинские, английские

Отчёт MediaInfo

General
Unique ID : 199126836869106193234464737597654741318 (0x95CE6F0C94EE138FAA16A53F0802B146)
Complete name : G:\Recode\The_Croods_2013_720p_60fps.mkv
Format : Matroska
Format version : Version 2
File size : 4.93 GiB
Duration : 1h 38mn
Overall bit rate : 7 162 Kbps
Movie name : The_Croods_2013
Encoded date : UTC 2015-10-25 18:55:09
Writing application : mkvmerge v4.3.0 ('Escape from the Island') сборка от Sep 28 2010 23:42:10
Writing library : libebml v1.0.0 + libmatroska v1.0.0
Video
ID : 1
Format : AVC
Format/Info : Advanced Video Codec
Format profile : High@L4.1
Format settings, CABAC : Yes
Format settings, ReFrames : 4 frames
Muxing mode : Header stripping
Codec ID : V_MPEG4/ISO/AVC
Duration : 1h 38mn
Bit rate : 5 150 Kbps
Width : 1 280 pixels
Height : 544 pixels
Display aspect ratio : 2.35:1
Frame rate mode : Constant
Frame rate : 60.000 fps
Original frame rate : 59.940 fps
Color space : YUV
Chroma subsampling : 4:2:0
Bit depth : 8 bits
Scan type : Progressive
Bits/(Pixel*Frame) : 0.123
Stream size : 3.47 GiB (70%)
Title : The_Croods_2013
Writing library : x264 core 130 r2273 b3065e6
Encoding settings : cabac=1 / ref=1 / deblock=1:0:0 / analyse=0x3:0x113 / me=hex / subme=2 / psy=1 / psy_rd=1.00:0.00 / mixed_ref=0 / me_range=16 / chroma_me=1 / trellis=0 / 8x8dct=1 / cqm=0 / deadzone=21,11 / fast_pskip=1 / chroma_qp_offset=0 / threads=3 / lookahead_threads=1 / sliced_threads=0 / nr=0 / decimate=1 / interlaced=0 / bluray_compat=0 / constrained_intra=0 / bframes=3 / b_pyramid=2 / b_adapt=1 / b_bias=0 / direct=1 / weightb=1 / open_gop=0 / weightp=1 / keyint=600 / keyint_min=60 / scenecut=40 / intra_refresh=0 / rc_lookahead=10 / rc=abr / mbtree=1 / bitrate=5150 / ratetol=1.0 / qcomp=0.60 / qpmin=0 / qpmax=69 / qpstep=4 / vbv_maxrate=62500 / vbv_bufsize=78125 / nal_hrd=none / ip_ratio=1.40 / aq=1:1.00
Language : English
Default : Yes
Forced : No
Color primaries : BT.709
Transfer characteristics : BT.709
Matrix coefficients : BT.709
Audio #1
ID : 2
Format : AC-3
Format/Info : Audio Coding 3
Mode extension : CM (complete main)
Format settings, Endianness : Big
Muxing mode : Header stripping
Codec ID : A_AC3
Duration : 1h 38mn
Bit rate mode : Constant
Bit rate : 448 Kbps
Channel count : 6 channels
Channel positions : Front: L C R, Side: L R, LFE
Sampling rate : 48.0 KHz
Bit depth : 16 bits
Compression mode : Lossy
Stream size : 316 MiB (6%)
Title : Dub
Language : Russian
Default : Yes
Forced : No
Audio #2
ID : 3
Format : AC-3
Format/Info : Audio Coding 3
Mode extension : CM (complete main)
Format settings, Endianness : Big
Muxing mode : Header stripping
Codec ID : A_AC3
Duration : 1h 38mn
Bit rate mode : Constant
Bit rate : 448 Kbps
Channel count : 6 channels
Channel positions : Front: L C R, Side: L R, LFE
Sampling rate : 48.0 KHz
Bit depth : 16 bits
Compression mode : Lossy
Stream size : 316 MiB (6%)
Title : Dub
Language : Ukrainian
Default : No
Forced : No
Audio #3
ID : 4
Format : AC-3
Format/Info : Audio Coding 3
Mode extension : CM (complete main)
Format settings, Endianness : Big
Muxing mode : Header stripping
Codec ID : A_AC3
Duration : 1h 38mn
Bit rate mode : Constant
Bit rate : 448 Kbps
Channel count : 6 channels
Channel positions : Front: L C R, Side: L R, LFE
Sampling rate : 48.0 KHz
Bit depth : 16 bits
Compression mode : Lossy
Stream size : 316 MiB (6%)
Title : Volodarskiy
Language : Russian
Default : No
Forced : No
Audio #4
ID : 5
Format : AC-3
Format/Info : Audio Coding 3
Mode extension : CM (complete main)
Format settings, Endianness : Big
Muxing mode : Header stripping
Codec ID : A_AC3
Duration : 1h 38mn
Bit rate mode : Constant
Bit rate : 640 Kbps
Channel count : 6 channels
Channel positions : Front: L C R, Side: L R, LFE
Sampling rate : 48.0 KHz
Bit depth : 16 bits
Compression mode : Lossy
Stream size : 451 MiB (9%)
Title : Original
Language : English
Default : No
Forced : No
Text #1
ID : 6
Format : UTF-8
Codec ID : S_TEXT/UTF8
Codec ID/Info : UTF-8 Plain Text
Title : Rus_Full
Language : Russian
Default : No
Forced : No
Text #2
ID : 7
Format : UTF-8
Codec ID : S_TEXT/UTF8
Codec ID/Info : UTF-8 Plain Text
Title : Ukr_Full
Language : Ukrainian
Default : No
Forced : No
Text #3
ID : 8
Format : UTF-8
Codec ID : S_TEXT/UTF8
Codec ID/Info : UTF-8 Plain Text
Title : Eng_Full
Language : English
Default : No
Forced : No
Menu
00:00:00.000 : en:Chapter 1
00:02:35.088 : en:Chapter 2
00:04:51.774 : en:Chapter 3
00:09:01.257 : en:Chapter 4
00:12:21.190 : en:Chapter 5
00:14:04.844 : en:Chapter 6
00:18:33.028 : en:Chapter 7
00:21:57.065 : en:Chapter 8
00:23:24.736 : en:Chapter 9
00:26:49.774 : en:Chapter 10
00:28:37.198 : en:Chapter 11
00:30:25.673 : en:Chapter 12
00:32:48.683 : en:Chapter 13
00:36:03.427 : en:Chapter 14
00:38:33.594 : en:Chapter 15
00:41:34.542 : en:Chapter 16
00:44:38.842 : en:Chapter 17
00:48:02.696 : en:Chapter 18
00:52:11.011 : en:Chapter 19
00:55:17.514 : en:Chapter 20
01:00:14.844 : en:Chapter 21
01:03:58.134 : en:Chapter 22
01:05:48.744 : en:Chapter 23
01:08:44.036 : en:Chapter 24
01:10:47.293 : en:Chapter 25
01:12:37.152 : en:Chapter 26
01:14:01.653 : en:Chapter 27
01:19:48.583 : en:Chapter 28
01:23:09.868 : en:Chapter 29
01:25:16.761 : en:Chapter 30
01:28:04.345 : en:Chapter 31
01:30:02.263 : en:Chapter 32
-Скриншоты
 
Показать сообщения:    

Текущее время: 02-Дек 21:08

Часовой пояс: UTC + 3


Вы не можете начинать темы
Вы не можете отвечать на сообщения
Вы не можете редактировать свои сообщения
Вы не можете удалять свои сообщения
Вы не можете голосовать в опросах
Вы не можете прикреплять файлы к сообщениям
Вы не можете скачивать файлы