Человек-паук: Через вселенные / Spider-Man: Into the Spider-Verse (2018) BDRip 1080p | 60 fps Полный расколбас / Sausage Party (2016) BDRip 1080p | 60 fps Аладдин / Aladdin (1992) BDRip 1080p | 60 fps ВАЛЛ·И / WALL-E (2008) BDRip-AVC | 60 fps Коралина в стране кошмаров / Coraline (2009) BDRip 1080p | 60 fps Холодное сердце 2 / Frozen II (2019) BDRip 1080p | 60 fps Три богатыря : Антология (2004-2014) BDRip-AVC | 60 fps Вверх / Up (2009) BDRip 720p от NNNB | 60 fps
  1. Longevity:
    4 years 3 months
    Posts:
    221
    Gender:
    Male
    Заказать фильмы, клипы или любое другое видео в качестве 60fps может каждый!!!
    Стоимость одного видео 50руб. !!!
    Пишите Талямба в личку, всё обсудите...
    Семейка Крудс: Новоселье / The Croods: A New Age (2020) BDRip 1080p | 60 fps Информация
    Название: Семейка Крудс: Новоселье
    Оригинальное название: The Croods: A New Age
    Год выхода: 2020
    Жанр: Мультфильм, фэнтези, комедия, приключения, семейный, полнометражный
    Режиссер: Джоэль Кроуфорд
    В ролях: Николас Кейдж, Эмма Стоун, Райан Рейнольдс, Кэтрин Кинер, Клорис Личмен, Кларк Дьюк, Лесли Манн, Питер Динклэйдж, Келли Мари Трэн, Кейли Кроуфорд
    Страна: США
    Продолжительность: 1 ч. 35 м. 14 с.
    -- Сюжет:
    Такие харизматичные герои как члены клана Крудс просто не в силах усидеть на месте. Они смело идут навстречу самым головокружительным приключениям и готовы ответить непредсказуемостью и находчивостью на любой вызов судьбы.
    -- Файл
    Кодек: V_MPEG4/ISO/AVC
    Формат: MKV
    Качество: BDRip 1080p | 60 fps
    Видео: 1920 x 816 (2,35:1) | 59.940 fps | 30.0 Мбит/сек
    Аудио 1: 48 kHz, AC3, 5.1, 640 Kbps | Лицензия |
    Аудио 2: 48 kHz, AC3, 5.1, 448 Kbps | HDRezka Studio |
    Аудио 3: 48 kHz, TrueHD, 7.1, 3095 Kbps | Оригинал |
    Аудио 4: 48 kHz, AC3, 5.1, 448 Kbps | Оригинал |

    MedifInfo

    Общее
    Уникальный идентификатор : 215434108780480862791682898645731662119 (0xA21319A116BDC20CA0900D68D12A5927)
    Полное имя : D:\Mult\Семейка Крудс 2 - Новоселье.2020.BDRip.1080p.60fps.mkv
    Формат : Matroska
    Версия формата : Version 2
    Размер файла : 23,1 Гбайт
    Продолжительность : 1 ч. 35 м.
    Режим общего битрейта : Переменный
    Общий поток : 34,7 Мбит/сек
    Название фильма : Семейка Крудс 2 https://60-fps.org/
    Дата кодирования : UTC 2021-05-02 07:12:18
    Программа кодирования : mkvmerge v5.8.0 ('No Sleep / Pillow') built on Sep 2 2012 15:37:04
    Библиотека кодирования : libebml v1.2.3 + libmatroska v1.3.0
    Attachments : Poster.jpg
    Видео
    Идентификатор : 1
    Формат : AVC
    Формат/Информация : Advanced Video Codec
    Профиль формата : [email protected]
    Параметр CABAC формата : Да
    Параметр ReFrames формата : 5 кадров
    Режим смешивания : Header stripping
    Идентификатор кодека : V_MPEG4/ISO/AVC
    Продолжительность : 1 ч. 35 м.
    Номинальный битрейт : 30,0 Мбит/сек
    Ширина : 1920 пикселей
    Высота : 816 пикселей
    Соотношение сторон : 2,35:1
    Режим частоты кадров : Постоянный
    Частота кадров : 59,940 (60000/1001) кадров/сек
    Цветовое пространство : YUV
    Субдискретизация насыщенности : 4:2:0
    Битовая глубина : 8 бит
    Тип развёртки : Прогрессивная
    Бит/(Пиксели*Кадры) : 0.319
    Библиотека кодирования : x264 core 146 r2538 121396c
    Настройки программы : cabac=1 / ref=5 / deblock=1:0:0 / analyse=0x3:0x113 / me=umh / subme=8 / psy=1 / psy_rd=1.00:0.25 / mixed_ref=1 / me_range=16 / chroma_me=1 / trellis=1 / 8x8dct=1 / cqm=0 / deadzone=6,6 / fast_pskip=1 / chroma_qp_offset=-4 / threads=12 / lookahead_threads=3 / sliced_threads=0 / nr=0 / decimate=0 / interlaced=0 / bluray_compat=0 / constrained_intra=0 / bframes=3 / b_pyramid=2 / b_adapt=2 / b_bias=0 / direct=3 / weightb=1 / open_gop=0 / weightp=2 / keyint=600 / keyint_min=60 / scenecut=40 / intra_refresh=0 / rc_lookahead=50 / rc=2pass / mbtree=1 / bitrate=30000 / ratetol=1.0 / qcomp=0.80 / qpmin=0 / qpmax=69 / qpstep=4 / cplxblur=20.0 / qblur=0.5 / vbv_maxrate=50000 / vbv_bufsize=50000 / nal_hrd=none / filler=0 / ip_ratio=1.10 / aq=1:0.50
    Язык : English
    Default : Да
    Forced : Нет
    Аудио #1
    Идентификатор : 2
    Формат : AC-3
    Формат/Информация : Audio Coding 3
    Расширение режима : CM (complete main)
    Параметр Endianness формата : Big
    Режим смешивания : Header stripping
    Идентификатор кодека : A_AC3
    Продолжительность : 1 ч. 35 м.
    Вид битрейта : Постоянный
    Битрейт : 640 Кбит/сек
    Каналы : 6 каналов
    Расположение каналов : Front: L C R, Side: L R, LFE
    Частота : 48,0 КГц
    Частота кадров : 31,250 кадров/сек (1536 spf)
    Битовая глубина : 16 бит
    Метод сжатия : С потерями
    Размер потока : 436 Мбайт (2%)
    Заголовок : Dub [License]
    Язык : Russian
    Default : Да
    Forced : Да
    Аудио #2
    Идентификатор : 3
    Формат : AC-3
    Формат/Информация : Audio Coding 3
    Расширение режима : CM (complete main)
    Параметр Endianness формата : Big
    Режим смешивания : Header stripping
    Идентификатор кодека : A_AC3
    Продолжительность : 1 ч. 35 м.
    Вид битрейта : Постоянный
    Битрейт : 448 Кбит/сек
    Каналы : 6 каналов
    Расположение каналов : Front: L C R, Side: L R, LFE
    Частота : 48,0 КГц
    Частота кадров : 31,250 кадров/сек (1536 spf)
    Битовая глубина : 16 бит
    Метод сжатия : С потерями
    Размер потока : 305 Мбайт (1%)
    Заголовок : MVO [HDRezka Studio]
    Язык : Russian
    Default : Нет
    Forced : Нет
    Аудио #3
    Идентификатор : 4
    Формат : Atmos / TrueHD
    Идентификатор кодека : A_TRUEHD
    Вид битрейта : Переменный
    Максимальный битрейт : 4263 Кбит/сек
    Каналы : Object Based / 8 каналов
    Расположение каналов : Object Based / Front: L C R, Side: L R, Back: L R, LFE
    Частота : / 48,0 КГц
    Частота кадров : 1200,000 кадров/сек (40 spf)
    Метод сжатия : Без потерь
    Заголовок : Original
    Язык : English
    Default : Нет
    Forced : Нет
    Аудио #4
    Идентификатор : 5
    Формат : AC-3
    Формат/Информация : Audio Coding 3
    Расширение режима : CM (complete main)
    Параметр Endianness формата : Big
    Режим смешивания : Header stripping
    Идентификатор кодека : A_AC3
    Продолжительность : 1 ч. 35 м.
    Вид битрейта : Постоянный
    Битрейт : 448 Кбит/сек
    Каналы : 6 каналов
    Расположение каналов : Front: L C R, Side: L R, LFE
    Частота : 48,0 КГц
    Частота кадров : 31,250 кадров/сек (1536 spf)
    Битовая глубина : 16 бит
    Метод сжатия : С потерями
    Размер потока : 305 Мбайт (1%)
    Язык : English
    Default : Нет
    Forced : Нет

    Release was prepared by 60-fps.org



    Last edited by Nurpus on 2021-05-03 11:23; edited 7 times in total
  2. Longevity:
    3 years 9 months
    Posts:
    2
    Gender:
    Unknown
    Здравствуйте , хотел уточнить , а будет ли этот мультик с официальным русским дубляжем ?
    30-Apr-2021 17:42 (after 2 months 15 days)
  3. Longevity:
    4 years 3 months
    Posts:
    221
    Gender:
    Male
    12459Здравствуйте , хотел уточнить , а будет ли этот мультик с официальным русским дубляжем ?
    Завтра обновлю
    01-May-2021 21:11 (after 1 day 3 hours)
  4. Longevity:
    4 years 3 months
    Posts:
    221
    Gender:
    Male
    Обновлен. Добавлен официальный русский дубляж.
    02-May-2021 10:37 (after 13 hours)
  5. Longevity:
    3 years 9 months
    Posts:
    2
    Gender:
    Unknown
    Nurpus, Огромное спасибо ! Это супер
    02-May-2021 14:14 (after 3 hours)
  6. Longevity:
    4 years 8 months
    Posts:
    1586
    Gender:
    Male
    Те, кто скачал данный мультик, но хочет его с Дубляжом - перезагрузите его по новой... !
    02-May-2021 16:35 (after 2 hours 20 minutes)
  7. Longevity:
    5 years 6 months
    Posts:
    23
    Gender:
    Unknown
    А куда делись скриншоты с сайта?
    02-May-2021 21:02 (after 4 hours)
  8. Longevity:
    4 years 3 months
    Posts:
    221
    Gender:
    Male
    12464А куда делись скриншоты с сайта?
    А к данной раздаче их и не было...
    02-May-2021 23:41 (after 2 hours 38 minutes)


You cannot post new topics in this forum
You cannot reply to topics in this forum
You cannot edit your posts in this forum
You cannot delete your posts in this forum
You cannot vote in polls in this forum
You cannot attach files in this forum
You cannot download files in this forum