[Цитировать]
Kryl

«Это не твое собачье дело»- Информация
Название: Семь психопатов
Оригинальное название: Seven Psychopaths
Год выхода: 2012
Жанр: Комедия, криминал
Режиссер: Мартин МакДона
Сценарий: Мартин МакДона
Продюсер: Грэхэм Броадбент, Питер Чернин, Мартин МакДона
В ролях: Колин Фаррелл, Сэм Рокуэлл, Кристофер Уокен, Вуди Харрельсон, Том Уэйтс, Эбби Корниш, Желько Иванек, Майкл Питт, Майкл Стулбарг, Габури Сидибе
--Сюжет:
Непутевый писатель потерял вдохновение и никак не может справиться с новым сценарием. Волей случая он оказывается втянутым в похищение собаки, затеянное его эксцентричными дружками. Выясняется, что украденное животное — любимый пёс главного местного гангстера, которому ничего не стоит в два счета вычислить и уничтожить оболтусов.- - Страна: Великобритания
Продолжительность: 01:50:23

Файл
Кодек: MPEG4/ISO/AVC H.264
Формат: MKV
Качество: BDRip 720p | 60 fps
Видео: 1280 x 534 (2.397) | 59.940 fps | 8.0 Мбит/сек
Аудио 1: AC3 | 5.1 | 48 kHz | 640 kbps | 16 bit | Дубляж |
Аудио 1: AC3 | 5.1 | 48 kHz | 640 kbps | 16 bit | одноголосый закадровый (Д.Пучков) |
Аудио 1: AC3 | 5.1 | 48 kHz | 640 kbps | 16 bit | одноголосый закадровый (Ю.Сербин) |
Аудио 1: AC3 | 5.1 | 48 kHz | 640 kbps | 16 bit | одноголосый закадровый (В.Завгородний) |
Аудио 1: AC3 | 5.1 | 48 kHz | 640 kbps | 16 bit | многоголосый закадровый (AAASound) (Украинский) |
Аудио 2: AC3 | 5.1 | 48 kHz | 640 kbps | 16 bit | ENG |
Субтитры: русские, английские (Full, Forced, SDH)

MedifInfo

Видео
Идентификатор : 1
Формат : AVC
Формат/Информация : Advanced Video Codec
Профиль формата : High@L4.1
Параметр CABAC формата : Да
Параметр ReFrames формата : 3 кадра
Идентификатор кодека : V_MPEG4/ISO/AVC
Продолжительность : 1 ч. 50 м.
Вид битрейта : Переменный
Битрейт : 7593 Кбит/сек
Максимальный битрейт : 8000 Кбит/сек
Ширина : 1280 пикселей
Высота : 534 пикселя
Соотношение сторон : 2,40:1
Режим частоты кадров : Постоянный
Частота кадров : 59,880 кадров/сек
Частота кадров в оригинале : 59,940 кадров/сек
Стандарт вещания : PAL
Цветовое пространство : YUV
Субдискретизация насыщенности : 4:2:0
Битовая глубина : 8 бит
Тип развёртки : Прогрессивная
Бит/(Пиксели*Кадры) : 0.186
Размер потока : 5,85 Гбайт (65%)
Заголовок : www.60-fps.org
Язык : English
Default : Да
Forced : Нет
Основные цвета : BT.601 NTSC
Характеристики трансфера : BT.601
Коэффициенты матрицы : BT.601
colour_range : Limited
Аудио #1
Идентификатор : 2
Формат : AC-3
Формат/Информация : Audio Coding 3
Расширение режима : CM (complete main)
Параметр Endianness формата : Big
Идентификатор кодека : A_AC3
Продолжительность : 1 ч. 50 м.
Вид битрейта : Постоянный
Битрейт : 640 Кбит/сек
Каналы : 6 каналов
Расположение каналов : Front: L C R, Side: L R, LFE
Частота : 48,0 КГц
Битовая глубина : 16 бит
Метод сжатия : С потерями
Размер потока : 505 Мбайт (5%)
Заголовок : Дублированный (Blu-ray CEE)
Язык : Russian
Default : Да
Forced : Нет
Аудио #2
Идентификатор : 3
Формат : AC-3
Формат/Информация : Audio Coding 3
Расширение режима : CM (complete main)
Параметр Endianness формата : Big
Идентификатор кодека : A_AC3
Продолжительность : 1 ч. 50 м.
Вид битрейта : Постоянный
Битрейт : 640 Кбит/сек
Каналы : 6 каналов
Расположение каналов : Front: L C R, Side: L R, LFE
Частота : 48,0 КГц
Битовая глубина : 16 бит
Метод сжатия : С потерями
Размер потока : 505 Мбайт (5%)
Заголовок : Одноголосый закадровый (Д.Пучков)
Язык : Russian
Default : Нет
Forced : Нет
Аудио #3
Идентификатор : 4
Формат : AC-3
Формат/Информация : Audio Coding 3
Расширение режима : CM (complete main)
Параметр Endianness формата : Big
Идентификатор кодека : A_AC3
Продолжительность : 1 ч. 50 м.
Вид битрейта : Постоянный
Битрейт : 640 Кбит/сек
Каналы : 6 каналов
Расположение каналов : Front: L C R, Side: L R, LFE
Частота : 48,0 КГц
Битовая глубина : 16 бит
Метод сжатия : С потерями
Размер потока : 505 Мбайт (5%)
Заголовок : Одноголосый закадровый (Ю.Сербин)
Язык : Russian
Default : Нет
Forced : Нет
Аудио #4
Идентификатор : 5
Формат : AC-3
Формат/Информация : Audio Coding 3
Расширение режима : CM (complete main)
Параметр Endianness формата : Big
Идентификатор кодека : A_AC3
Продолжительность : 1 ч. 50 м.
Вид битрейта : Постоянный
Битрейт : 640 Кбит/сек
Каналы : 6 каналов
Расположение каналов : Front: L C R, Side: L R, LFE
Частота : 48,0 КГц
Битовая глубина : 16 бит
Метод сжатия : С потерями
Размер потока : 505 Мбайт (5%)
Заголовок : Одноголосый закадровый (В.Завгородний)
Язык : Russian
Default : Нет
Forced : Нет
Аудио #5
Идентификатор : 6
Формат : AC-3
Формат/Информация : Audio Coding 3
Расширение режима : CM (complete main)
Параметр Endianness формата : Big
Идентификатор кодека : A_AC3
Продолжительность : 1 ч. 50 м.
Вид битрейта : Постоянный
Битрейт : 640 Кбит/сек
Каналы : 6 каналов
Расположение каналов : Front: L C R, Side: L R, LFE
Частота : 48,0 КГц
Битовая глубина : 16 бит
Метод сжатия : С потерями
Размер потока : 505 Мбайт (5%)
Заголовок : Многоголосый закадровый (AAASound)
Язык : Ukrainian
Default : Нет
Forced : Нет
Аудио #6
Идентификатор : 7
Формат : AC-3
Формат/Информация : Audio Coding 3
Расширение режима : CM (complete main)
Параметр Endianness формата : Big
Идентификатор кодека : A_AC3
Продолжительность : 1 ч. 50 м.
Вид битрейта : Постоянный
Битрейт : 640 Кбит/сек
Каналы : 6 каналов
Расположение каналов : Front: L C R, Side: L R, LFE
Частота : 48,0 КГц
Битовая глубина : 16 бит
Метод сжатия : С потерями
Размер потока : 505 Мбайт (5%)
Заголовок : ENG
Язык : English
Default : Нет
Forced : Нет
Текст #1
Идентификатор : 8
Формат : UTF-8
Идентификатор кодека : S_TEXT/UTF8
Идентификатор кодека/Информация : UTF-8 Plain Text
Заголовок : Русские
Язык : Russian
Default : Нет
Forced : Нет
Текст #2
Идентификатор : 9
Формат : UTF-8
Идентификатор кодека : S_TEXT/UTF8
Идентификатор кодека/Информация : UTF-8 Plain Text
Заголовок : English (Full)
Язык : English
Default : Нет
Forced : Нет
Текст #3
Идентификатор : 10
Формат : UTF-8
Идентификатор кодека : S_TEXT/UTF8
Идентификатор кодека/Информация : UTF-8 Plain Text
Заголовок : English (Forced)
Язык : English
Default : Нет
Forced : Нет
Текст #4
Идентификатор : 11
Формат : UTF-8
Идентификатор кодека : S_TEXT/UTF8
Идентификатор кодека/Информация : UTF-8 Plain Text
Заголовок : English (SDH)
Язык : English
Default : Нет
Forced : Нет
Меню
00:00:00.000 : en:00:00:00.000
00:06:53.038 : en:00:06:53.038
00:14:26.115 : en:00:14:26.115
00:20:37.987 : en:00:20:37.987
00:27:05.916 : en:00:27:05.916
00:33:35.722 : en:00:33:35.722
00:38:01.112 : en:00:38:01.112
00:45:08.205 : en:00:45:08.205
00:52:11.295 : en:00:52:11.295
00:59:04.207 : en:00:59:04.207
01:09:26.496 : en:01:09:26.496
01:17:18.133 : en:01:17:18.133
01:20:54.641 : en:01:20:54.641
01:26:29.393 : en:01:26:29.393
01:35:36.814 : en:01:35:36.814
01:41:13.192 : en:01:41:13.192

Релиз подготовлен 60 - fps

[Цитировать]
Muhammad Raheel Khan

Nice Share

[Цитировать]
ENIGMA

Большое Спасибо! Овации
Фильм Отличный! Смеюсь
 
Показать сообщения:    

Текущее время: 28-Май 00:11

Часовой пояс: UTC + 3


Вы не можете начинать темы
Вы не можете отвечать на сообщения
Вы не можете редактировать свои сообщения
Вы не можете удалять свои сообщения
Вы не можете голосовать в опросах
Вы не можете прикреплять файлы к сообщениям
Вы не можете скачивать файлы