[Цитировать]
Kryl

- Танец SELFIE – В прошлом (2015) Master 1080p | 60 fps Танец- -Информация о Клипе
Исполнитель: SELFIE
Название: В прошлом
Год выхода: 2015
Продолжительность: 00:03:52
О клипе:
SELFIE – это Ксюша, Диана и Анжелика. Девушки обожают всё, что связано с музыкой, пением и танцами, и с самого раннего детства мечтают стать популярными певицами – и вот наконец их мечта начала сбываться! Первая песня SELFIE уже получила поддержку в лице Warner Music Russia и Love Radio.
Девушки из SELFIE признались, что клип получился поучительный: «Парни, мы просим вас научиться ценить то, что имеете, а иначе вы будете ценить воспоминания!»
SELFIE про клип: «Типичный молодой ловелас больше не готов к серьезным отношениям и всё было бы весело, но одна девушка готовит оригинальный план мести со взломом квартиры, который очень удивит нашего героя и наконец-то даст ему понять, что нельзя играть на чувствах других…»
-Файл
Кодек: MPEG4/ISO/AVC/ H.264
Формат: MKV
Качество: Master 1080p | 60 fps
Видео : 1920 x 744 (2.581) | 60.000 fps 20.0 Мбит/сек
Аудио : DTS | 1413 Кбит/сек | 48.0 KHz | 2.0 channels

MediaInfo

Видео
Идентификатор : 1
Формат : AVC
Формат/Информация : Advanced Video Codec
Профиль формата : High@L4.2
Параметр CABAC формата : Да
Параметр ReFrames формата : 3 кадра
Идентификатор кодека : V_MPEG4/ISO/AVC
Продолжительность : 3 м. 53 с.
Вид битрейта : Переменный
Битрейт : 19,6 Мбит/сек
Максимальный битрейт : 20,0 Мбит/сек
Ширина : 1920 пикселей
Высота : 744 пикселя
Соотношение сторон : 2,581
Режим частоты кадров : Постоянный
Частота кадров : 60,000 кадров/сек
Стандарт вещания : PAL
Цветовое пространство : YUV
Субдискретизация насыщенности : 4:2:0
Битовая глубина : 8 бит
Тип развёртки : Прогрессивная
Бит/(Пиксели*Кадры) : 0.228
Размер потока : 543 Мбайт (91%)
Заголовок : www.60-fps.org
Язык : English
Default : Да
Forced : Нет
Основные цвета : BT.709
Характеристики трансфера : BT.709
Коэффициенты матрицы : BT.709
colour_range : Limited
Аудио
Идентификатор : 2
Формат : DTS
Формат/Информация : Digital Theater Systems
Режим : 16
Параметр Endianness формата : Big
Идентификатор кодека : A_DTS
Продолжительность : 3 м. 53 с.
Вид битрейта : Постоянный
Битрейт : 1413 Кбит/сек
Каналы : 2 канала
Расположение каналов : Front: L R
Частота : 48,0 КГц
Битовая глубина : 16 бит
Метод сжатия : С потерями
Задержка видео : 80 мс.
Размер потока : 39,2 Мбайт (7%)
Заголовок : DTS
Default : Да
Forced : Нет
DURATION : 00:03:52.928000000
NUMBER_OF_FRAMES : 21837
NUMBER_OF_BYTES : 41140908
_STATISTICS_WRITING_APP : mkvmerge v7.6.0 ('Garden of Dreams') 32bit built on Feb 8 2015 12:51:39
_STATISTICS_WRITING_DATE_UTC : 2016-04-17 20:57:19
_STATISTICS_TAGS : BPS DURATION NUMBER_OF_FRAMES NUMBER_OF_BYTES

Релиз подготовлен 60 - fps

 
Показать сообщения:    

Текущее время: 08-Дек 19:02

Часовой пояс: UTC + 3


Вы не можете начинать темы
Вы не можете отвечать на сообщения
Вы не можете редактировать свои сообщения
Вы не можете удалять свои сообщения
Вы не можете голосовать в опросах
Вы не можете прикреплять файлы к сообщениям
Вы не можете скачивать файлы