Гоголь. Начало (2017) BDRip 1080p | 60 fps За гранью реальности (2018) BDRip 1080p | 60 FPS Я худею (2018) BDRip 1080p | 60 FPS Гоголь. Начало (2017) BDRip 720p | 60 fps Каникулы президента (2018) BDRip 1080p | 60 FPS Легенда о Коловрате (2017) BDRip 720p | 60 fps Легенда о Коловрате (2017) BDRip 1080p | 60 fps О чём говорят мужчины. Продолжение (2018) BDRip 1080p | 60 FPS
  1. Стаж:
    2 года 1 месяц
    Сообщений:
    588
    Пол:
    Мужской
    «---»- Информация
    Название: Селфи
    Оригинальное название: #Selfi
    Год выхода: 2018
    Жанр: триллер, драма
    Режиссер: Николай Хомерики
    Сценарий: Сергей Минаев
    Продюсер: Петр Ануров, Фёдор Бондарчук, Дмитрий Рудовский
    В ролях: Константин Хабенский,Юлия Хлынина,Фёдор Бондарчук,Анна Михалкова,Северия Янушаускайте,Михаил Мухтасипов,Александра Велескевич,Сергей Бондаренко,Андрей Гринев,Марина Калецкая
    --Сюжет:
    Он полностью копировал его — жесты, мимика, даже шутил так, что никто не заподозрил подмены. Богданов смотрел в экран, как в зеркало. Двойник вел его телепередачу, встречался с его фанатами-читателями, жил с его женщинами, выпивал в баре с его друзьями… Это произошло вмиг — раз — тебя стерли, твою личность, и тут бессильны лучшие психоаналитики. Публичный и успешный, остроумный и циничный, Богданов лишился всего, чего добивался годами, выстраивая свою карьеру и жизнь. И теперь он отчетливо понимал: копия лучше и честнее его самого, битва за себя проиграна. И только дочь хочет вернуть истинного Богданова…- Страна: Россия
    Продолжительность: 01:49:51

    Файл
    Кодек: MPEG4/ISO/AVC/H.264
    Формат: MKV
    Качество: BDRip 1080p | 60 fps
    Видео: 1920 x 720 (2.667) | 60.000 fps | 8.0 Мбит/сек
    Аудио 1: AC-3| 5.1 | 48 kHz | 384 Кбит/сек | 16 bit | Оригинал |
    Субтитры: НЕТ

    MedifInfo

    Видео
    Идентификатор : 1
    Формат : AVC
    Формат/Информация : Advanced Video Codec
    Профиль формата : High@L4.1
    Параметр CABAC формата : Да
    Параметр ReFrames формата : 6 кадров
    Идентификатор кодека : V_MPEG4/ISO/AVC
    Продолжительность : 1 ч. 49 м.
    Битрейт : 8000 Кбит/сек
    Ширина : 1920 пикселей
    Высота : 720 пикселей
    Соотношение сторон : 2,667
    Режим частоты кадров : Постоянный
    Частота кадров : 60,000 кадров/сек
    Цветовое пространство : YUV
    Субдискретизация насыщенности : 4:2:0
    Битовая глубина : 8 бит
    Тип развёртки : Прогрессивная
    Бит/(Пиксели*Кадры) : 0.096
    Размер потока : 6,13 Гбайт (95%)
    Заголовок : Талямба: 60-fps.org
    Библиотека кодирования : x264 core 146 r2538 121396c
    Настройки программы : cabac=1 / ref=6 / deblock=1:1:1 / analyse=0x3:0x113 / me=umh / subme=8 / psy=1 / psy_rd=0.40:0.00 / mixed_ref=1 / me_range=32 / chroma_me=1 / trellis=1 / 8x8dct=1 / cqm=0 / deadzone=21,11 / fast_pskip=1 / chroma_qp_offset=-2 / threads=12 / lookahead_threads=2 / sliced_threads=0 / nr=0 / decimate=1 / interlaced=0 / bluray_compat=0 / constrained_intra=0 / bframes=5 / b_pyramid=2 / b_adapt=2 / b_bias=0 / direct=3 / weightb=1 / open_gop=0 / weightp=2 / keyint=600 / keyint_min=60 / scenecut=40 / intra_refresh=0 / rc_lookahead=50 / rc=2pass / mbtree=1 / bitrate=8000 / ratetol=1.0 / qcomp=0.60 / qpmin=0 / qpmax=69 / qpstep=4 / cplxblur=20.0 / qblur=0.5 / vbv_maxrate=50000 / vbv_bufsize=50000 / nal_hrd=none / filler=0 / ip_ratio=1.40 / aq=1:0.60
    Язык : Russian
    Default : Да
    Forced : Нет
    Аудио
    Идентификатор : 2
    Формат : AC-3
    Формат/Информация : Audio Coding 3
    Расширение режима : CM (complete main)
    Параметр Endianness формата : Big
    Идентификатор кодека : A_AC3
    Продолжительность : 1 ч. 49 м.
    Вид битрейта : Постоянный
    Битрейт : 384 Кбит/сек
    Каналы : 6 каналов
    Расположение каналов : Front: L C R, Side: L R, LFE
    Частота : 48,0 КГц
    Частота кадров : 31,250 кадров/сек (1536 spf)
    Битовая глубина : 16 бит
    Метод сжатия : С потерями
    Размер потока : 302 Мбайт (5%)
    Заголовок : Оригинал (iTunes)
    Язык : Russian
    Default : Да
    Forced : Нет
    Меню
    00:00:00.000 : en:Глава 1
    00:08:39.000 : en:Глава 2
    00:14:04.040 : en:Глава 3
    00:22:09.560 : en:Глава 4
    00:26:45.720 : en:Глава 5
    00:31:21.800 : en:Глава 6
    00:36:19.880 : en:Глава 7
    00:42:43.040 : en:Глава 8
    00:47:45.320 : en:Глава 9
    00:53:22.640 : en:Глава 10
    00:58:17.040 : en:Глава 11
    01:03:07.560 : en:Глава 12
    01:09:49.160 : en:Глава 13
    01:15:08.200 : en:Глава 14
    01:23:32.960 : en:Глава 15
    01:29:31.280 : en:Глава 16
    01:33:51.239 : en:Глава 17
    01:38:57.959 : en:Глава 18


Вы не можете начинать темы
Вы не можете отвечать на сообщения
Вы не можете редактировать свои сообщения
Вы не можете удалять свои сообщения
Вы не можете голосовать в опросах
Вы не можете прикреплять файлы к сообщениям
Вы не можете скачивать файлы