Lady Gaga - Bad Romance (2009) Master | ProRes Jennifer Lopez - Waiting For Tonight (1999) 540p | Master | ProRes Lady Gaga - Poker Face (2009) Master | ProRes Lady Gaga - Paparazzi (2009) Master | ProRes Britney Spears - Hold It Against Me (2011) Master | ProRes Rihanna feat. Drake - Work (2016) Master | ProRes Lady Gaga - Born This Way (2011) Master | ProRes Rihanna - Shut Up And Drive (2007) Master | ProRes
  1. Longevity:
    5 years 1 month
    Posts:
    2417
    Gender:
    Male
    -Selena Gomez - Kill Em With Kindness (2016) Master | ProRes --Информация о Клипе
    Исполнитель: Selena Gomez
    Название: Kill Em With Kindness
    Год выхода: 2016
    Продолжительность: 00:03:45-Описание:
    Видеоклип был выпущен 6 июня 2016 года на VEVO. Видео снято в чёрно-белых тонах и насыщено символизмом: розы — сексуальное насилие, пули — война, свеча — конец мира, а танцоры — художественное изображение. За неделю данный клип набрал 17 миллионов просмотров.
    Гомес исполняла песню как часть сет-листа во время выступлений на новогоднем фестивале Jingle Ball Tour 2015. Трек был также представлен после объявления его синглом на We Day 7 апреля 2016 года.
    -Файл
    Кодек: APCH
    Контейнер: MOV
    Формат: ProRes
    Качество: Master
    Видео: 1920 x 1080 (1.778) | 24.000 fps | 73,6 Мбит/сек
    Аудио: PCM | 2304 Кбит/сек | 2.0 канала, 48.0 КГц

    MI

    Формат : QuickTime
    Формат/Информация : Original Apple specifications
    Размер файла : 2,00 Гбайт
    Продолжительность : 3 м. 45 с.
    Режим общего битрейта : Переменный
    Общий поток : 75,9 Мбит/сек
    Дата кодирования : UTC 2016-06-13 22:40:53
    Дата пометки : UTC 2016-06-13 22:40:53
    Библиотека кодирования : Apple QuickTime
    Видео
    Идентификатор : 1
    Формат : ProRes
    Версия формата : Version 0
    Профиль формата : LT
    Идентификатор кодека : apcs
    Продолжительность : 3 м. 45 с.
    Вид битрейта : Переменный
    Битрейт : 73,6 Мбит/сек
    Ширина : 1920 пикселей
    Высота : 1080 пикселей
    Соотношение сторон : 16:9
    Режим частоты кадров : Постоянный
    Частота кадров : 24,000 кадра/сек
    Цветовое пространство : YUV
    Субдискретизация насыщенности : 4:2:2
    Тип развёртки : Прогрессивная
    Бит/(Пиксели*Кадры) : 1.480
    Размер потока : 1,94 Гбайт (97%)
    Библиотека кодирования : apt0
    Язык : English
    Дата кодирования : UTC 2016-06-13 22:40:53
    Дата пометки : UTC 2016-06-13 22:40:53
    Основные цвета : BT.709
    Характеристики трансфера : BT.709
    Коэффициенты матрицы : BT.709
    matrix_coefficients_Original : BT.709
    Аудио
    Идентификатор : 2
    Формат : PCM
    Параметр Endianness формата : Little
    Параметр Sign формата : Unsigned
    Идентификатор кодека : in24
    Продолжительность : 3 м. 45 с.
    Вид битрейта : Постоянный
    Битрейт : 2304 Кбит/сек
    Каналы : 2 канала
    Расположение каналов : Front: L R
    Частота : 48,0 КГц
    Битовая глубина : 24 бит
    Размер потока : 62,0 Мбайт (3%)
    Язык : English
    Дата кодирования : UTC 2016-06-13 22:40:53
    Дата пометки : UTC 2016-06-13 22:40:53
    Прочее
    Идентификатор : 3
    Тип : Time code
    Формат : QuickTime TC
    Продолжительность : 3 м. 45 с.
    Временной код первого кадра : 00:00:00:00
    TimeCode_Striped/String : Да
    Язык : English
    Дата кодирования : UTC 2016-06-13 22:40:53
    Дата пометки : UTC 2016-06-13 22:40:53

    Release was prepared by 60 - fps



You cannot post new topics in this forum
You cannot reply to topics in this forum
You cannot edit your posts in this forum
You cannot delete your posts in this forum
You cannot vote in polls in this forum
You cannot attach files in this forum
You cannot download files in this forum