Rammstein (БЕЗ ЦЕНЗУРЫ)| WEBRip 1080p | 60 fps Britney Spears - Oops! I Did It Again Uncut (2009) HD 1080p | 60 fps BLACKPINK | WEBRip 1080p | 60 fps Evanescence - Synthesis Live (2018) BDRip 1080p | 60 fps Jennifer Lopez ft. Iggy Azalea - Booty (2014) Full HD 1080p | 60 fps Britney Spears - Toxic (2004) HDTVRip 1080p | 60 fps ITZY | WEBRip 1080p | 60 fps Luis Fonsi - Despacito ft. Daddy Yankee (2017) WEBRip 1080p | 60 fps
  1. Longevity:
    5 years 11 months
    Posts:
    2419
    Gender:
    Male
    Музыка Selena Gomez - Hands To Myself (2016) WEBRip 1080p | 60 fps Музыка -Информация о Клипе
    Исполнитель: Selena Gomez
    Название: Hands To Myself
    Год выхода: 2016
    Продолжительность: 00:03:47
    О клипе:

    Селена Гомес в клипе на новую песню «Hands to myself» разгуливает по дому в нижнем белье и страстно обнимается с манекенщиком.
    «В конце концов, мне больше не 16. Я молодая женщина, и я выросла и пытаюсь жить так, как мне комфортно на данный момент», — прокомментировала исполнительница выход нового видео. Клип с горячими сценами, где принимает участие американский манекенщик Кристофер Мэйсон, уже успели оценить поклонники Селены Гомес.
    Напомним, именно с песней «Hands to myself» Селена появилась на ежегодном шоу Victoria's Secret. На эту же композицию артистка выпустила «альтернативный» клип, в котором снялись «ангелы» популярной марки.
    -Файл
    Кодек: MPEG4/ISO/AVC/ H.264
    Формат: MKV
    Качество: WEBRip 1080p
    Видео: 1920 x 1080 (1.778)| 59.940 fps 5.0 Мбит/сек
    Аудио: MP3 | 320 Кбит/сек | 44.1 KHz | 2 channels

    MI

    Видео
    Идентификатор : 1
    Формат : AVC
    Формат/Информация : Advanced Video Codec
    Профиль формата : High@L4.1
    Параметр CABAC формата : Да
    Параметр ReFrames формата : 4 кадра
    Идентификатор кодека : V_MPEG4/ISO/AVC
    Продолжительность : 3 м. 47 с.
    Битрейт : 4999 Кбит/сек
    Ширина : 1920 пикселей
    Высота : 1080 пикселей
    Соотношение сторон : 16:9
    Режим частоты кадров : Постоянный
    Частота кадров : 59,880 кадров/сек
    Частота кадров в оригинале : 59,940 кадров/сек
    Цветовое пространство : YUV
    Субдискретизация насыщенности : 4:2:0
    Битовая глубина : 8 бит
    Тип развёртки : Прогрессивная
    Бит/(Пиксели*Кадры) : 0.040
    Размер потока : 133 Мбайт (92%)
    Заголовок : www.60-fps.org
    Библиотека кодирования : x264 core 148 r2638 7599210
    Настройки программы : cabac=1 / ref=4 / deblock=1:-3:-3 / analyse=0x3:0x133 / me=esa / subme=9 / psy=1 / psy_rd=1.00:0.25 / mixed_ref=1 / me_range=32 / chroma_me=1 / trellis=2 / 8x8dct=1 / cqm=0 / deadzone=6,6 / fast_pskip=1 / chroma_qp_offset=-4 / threads=12 / lookahead_threads=1 / sliced_threads=0 / nr=0 / decimate=0 / interlaced=0 / bluray_compat=0 / constrained_intra=0 / bframes=3 / b_pyramid=2 / b_adapt=2 / b_bias=0 / direct=3 / weightb=1 / open_gop=0 / weightp=2 / keyint=599 / keyint_min=59 / scenecut=40 / intra_refresh=0 / rc_lookahead=60 / rc=2pass / mbtree=1 / bitrate=4999 / ratetol=1.0 / qcomp=0.80 / qpmin=0 / qpmax=69 / qpstep=4 / cplxblur=20.0 / qblur=0.5 / vbv_maxrate=62500 / vbv_bufsize=78125 / nal_hrd=none / filler=0 / ip_ratio=1.10 / aq=1:0.50
    Default : Да
    Forced : Нет
    Аудио
    Идентификатор : 2
    Формат : MPEG Audio
    Версия формата : Version 1
    Профиль формата : Layer 3
    Режим : Joint stereo
    Расширение режима : MS Stereo
    Идентификатор кодека : A_MPEG/L3
    Идентификатор кодека/Подсказка : MP3
    Продолжительность : 3 м. 47 с.
    Вид битрейта : Постоянный
    Битрейт : 320 Кбит/сек
    Каналы : 2 канала
    Частота : 44,1 КГц
    Метод сжатия : С потерями
    Размер потока : 8,68 Мбайт (6%)
    Заголовок : MP3
    Библиотека кодирования : LAME3.99.5
    Default : Да
    Forced : Нет

    Release was prepared by 60 - fps



You cannot post new topics in this forum
You cannot reply to topics in this forum
You cannot edit your posts in this forum
You cannot delete your posts in this forum
You cannot vote in polls in this forum
You cannot attach files in this forum
You cannot download files in this forum