[Цитировать]
Kryl

Музыка Selena Gomez - Hands To Myself (2016) Master 720p | 60 fps Музыка -Информация о Клипе
Исполнитель: Selena Gomez
Название: Hands To Myself
Год выхода: 2016
Продолжительность: 00:03:47
О клипе:

Селена Гомес в клипе на новую песню «Hands to myself» разгуливает по дому в нижнем белье и страстно обнимается с манекенщиком.
«В конце концов, мне больше не 16. Я молодая женщина, и я выросла и пытаюсь жить так, как мне комфортно на данный момент», — прокомментировала исполнительница выход нового видео. Клип с горячими сценами, где принимает участие американский манекенщик Кристофер Мэйсон, уже успели оценить поклонники Селены Гомес.
Напомним, именно с песней «Hands to myself» Селена появилась на ежегодном шоу Victoria's Secret. На эту же композицию артистка выпустила «альтернативный» клип, в котором снялись «ангелы» популярной марки.
-Файл
Кодек: MPEG4/ISO/AVC/ H.264
Формат: MKV
Качество: Master 720p
Видео: 1280 x 720 (1.778) | 59.940 fps 12.0 Мбит/сек
Аудио: DTS | 1413 Кбит/сек | 48.0 KHz | 2 channels

MI

Видео
Идентификатор : 1
Формат : AVC
Формат/Информация : Advanced Video Codec
Профиль формата : High@L4.1
Параметр CABAC формата : Да
Параметр ReFrames формата : 3 кадра
Идентификатор кодека : V_MPEG4/ISO/AVC
Продолжительность : 3 м. 47 с.
Вид битрейта : Переменный
Битрейт : 11,4 Мбит/сек
Максимальный битрейт : 12,0 Мбит/сек
Ширина : 1280 пикселей
Высота : 720 пикселей
Соотношение сторон : 16:9
Режим частоты кадров : Постоянный
Частота кадров : 59,880 кадров/сек
Частота кадров в оригинале : 59,940 кадров/сек
Стандарт вещания : PAL
Цветовое пространство : YUV
Субдискретизация насыщенности : 4:2:0
Битовая глубина : 8 бит
Тип развёртки : Прогрессивная
Бит/(Пиксели*Кадры) : 0.207
Размер потока : 310 Мбайт (87%)
Заголовок : www.60-fps.org
Язык : English
Default : Да
Forced : Нет
Основные цвета : BT.709
Характеристики трансфера : BT.709
Коэффициенты матрицы : BT.709
colour_range : Limited
Аудио
Идентификатор : 2
Формат : DTS
Формат/Информация : Digital Theater Systems
Режим : 16
Параметр Endianness формата : Big
Идентификатор кодека : A_DTS
Продолжительность : 3 м. 47 с.
Вид битрейта : Постоянный
Битрейт : 1413 Кбит/сек
Каналы : 2 канала
Расположение каналов : Front: L R
Частота : 48,0 КГц
Битовая глубина : 16 бит
Метод сжатия : С потерями
Задержка видео : 417 мс.
Размер потока : 38,4 Мбайт (11%)
Заголовок : DTS
Язык : English
Default : Да
Forced : Нет
DURATION : 00:03:47.520000000
NUMBER_OF_FRAMES : 21330
NUMBER_OF_BYTES : 40185720
_STATISTICS_WRITING_APP : mkvmerge v7.6.0 ('Garden of Dreams') 32bit built on Feb 8 2015 12:51:39
_STATISTICS_WRITING_DATE_UTC : 2016-04-07 09:13:29
_STATISTICS_TAGS : BPS DURATION NUMBER_OF_FRAMES NUMBER_OF_BYTES

Релиз подготовлен 60 - fps

[60-fps.org].t1976.torrent
Торрент: Зарегистрирован [ 2016-04-07 12:25 ] · 3EE2C6559C540B401E0AAAB74D57F3E2AEE84ADA

Скачать .torrent

Скачать

14 KB

Статус: проверено
Скачан: 22 раз
Поблагодарили:
Размер: 356 MB
 
Похожие Темы
 
Показать сообщения:    

Текущее время: 22-Фев 04:39

Часовой пояс: UTC + 3


Вы не можете начинать темы
Вы не можете отвечать на сообщения
Вы не можете редактировать свои сообщения
Вы не можете удалять свои сообщения
Вы не можете голосовать в опросах
Вы не можете прикреплять файлы к сообщениям
Вы можете скачивать файлы