[Цитировать]
Kryl

Сексмиссия / Новые амазонки / Seksmisja (1983) HDTVRip 720p | 60 fps- Информация о фильме
Название: Сексмиссия / Новые амазонки
Оригинальное название: Seksmisja
Год выхода: 1983
Жанр: Фантастика, комедия, приключения
Режиссер: Юлиуш Махульский, Павел Гайны, Йоланта Хартвиг
Сценарий: Юлиуш Махульский
Роли озвучивали: Ольгерд Лукашевич, Ежи Штур, Божена Стрыйкувна, Богуслава Павелец, Ханна Станкувна, Беата Тышкевич, Рышарда Ханин, Барбара Людвижанка, Мирослава Мархелюк, Ханна Микуць...
--О фильме:
Альберт и Максимилиан соглашаются стать участниками эксперимента профессора Куппельвайзера: они, двое молодых мужчин лет 30-ти, в интересах науки должны быть заморожены сроком на 3 года. Однако за время, проведенное ими в специальных капсулах, на Земле многое изменилось, и потому Альбертика с Максом разморозили не через три года, а через полвека с лишним. В 2044 году. Когда «вымерли» все мужчины, и «других самцов», кроме парочки размороженных, больше нигде не осталось.
«Амазонки 21-го века» живут в глубоком подземелье, благополучно разрешив проблему размножения без оплодотворения, и не нуждаются в присутствии особей мужского пола. С риском для собственной жизни Альберт и Макс вынуждены приступить к выполнению «сексмиссии»…
- - Страна: США
Продолжительность: 01:30:04
-- Файл
Кодек: MPEG4/ISO/AVC H.264
Формат: MKV
Качество: HDTVRip 720p
Видео: 1280x720 | 60.000 fps | 8.0 Мбит/сек
Аудио 1: AC3 | 2.0 | 48 kHz | 384 kbps | 16 bit | Дубляж |
Аудио 2: AC3 | 2.0 | 48 kHz | 448 kbps | 16 bit
Субтитры: Русские, английские ( UTF-8/ Str )

MedifInfo

Видео
Идентификатор : 1
Формат : AVC
Формат/Информация : Advanced Video Codec
Профиль формата : High@L4.1
Параметр CABAC формата : Да
Параметр ReFrames формата : 8 кадров
Идентификатор кодека : V_MPEG4/ISO/AVC
Продолжительность : 1 ч. 55 м.
Битрейт : 7999 Кбит/сек
Ширина : 1280 пикселей
Высота : 720 пикселей
Соотношение сторон : 16:9
Режим частоты кадров : Постоянный
Частота кадров : 60,000 кадров/сек
Цветовое пространство : YUV
Субдискретизация насыщенности : 4:2:0
Битовая глубина : 8 бит
Тип развёртки : Прогрессивная
Бит/(Пиксели*Кадры) : 0.145
Размер потока : 6,32 Гбайт (89%)
Заголовок : www.60-fps.org
Библиотека кодирования : x264 core 146 r2538 121396c
Настройки программы : cabac=1 / ref=8 / deblock=1:-2:-3 / analyse=0x3:0x133 / me=esa / subme=9 / psy=1 / psy_rd=1.00:0.25 / mixed_ref=1 / me_range=32 / chroma_me=1 / trellis=2 / 8x8dct=1 / cqm=0 / deadzone=6,6 / fast_pskip=1 / chroma_qp_offset=-4 / threads=12 / lookahead_threads=1 / sliced_threads=0 / nr=0 / decimate=0 / interlaced=0 / bluray_compat=0 / constrained_intra=0 / bframes=3 / b_pyramid=2 / b_adapt=2 / b_bias=0 / direct=3 / weightb=1 / open_gop=0 / weightp=2 / keyint=600 / keyint_min=60 / scenecut=40 / intra_refresh=0 / rc_lookahead=60 / rc=2pass / mbtree=1 / bitrate=7999 / ratetol=1.0 / qcomp=0.80 / qpmin=0 / qpmax=69 / qpstep=4 / cplxblur=20.0 / qblur=0.5 / vbv_maxrate=62500 / vbv_bufsize=78125 / nal_hrd=none / filler=0 / ip_ratio=1.10 / aq=1:0.50
Default : Да
Forced : Нет
Аудио #1
Идентификатор : 2
Формат : AC-3
Формат/Информация : Audio Coding 3
Расширение режима : CM (complete main)
Параметр Endianness формата : Big
Идентификатор кодека : A_AC3
Продолжительность : 1 ч. 55 м.
Вид битрейта : Постоянный
Битрейт : 384 Кбит/сек
Каналы : 6 каналов
Расположение каналов : Front: L C R, Side: L R, LFE
Частота : 48,0 КГц
Битовая глубина : 16 бит
Метод сжатия : С потерями
Размер потока : 318 Мбайт (4%)
Заголовок : MVO (Мастер Тэйп)
Язык : Russian
Default : Да
Forced : Нет
Аудио #2
Идентификатор : 3
Формат : AC-3
Формат/Информация : Audio Coding 3
Расширение режима : CM (complete main)
Параметр Endianness формата : Big
Идентификатор кодека : A_AC3
Продолжительность : 1 ч. 55 м.
Вид битрейта : Постоянный
Битрейт : 448 Кбит/сек
Каналы : 6 каналов
Расположение каналов : Front: L C R, Side: L R, LFE
Частота : 48,0 КГц
Битовая глубина : 16 бит
Метод сжатия : С потерями
Размер потока : 370 Мбайт (5%)
Заголовок : Original
Язык : Polish
Default : Нет
Forced : Нет
Текст #1
Идентификатор : 4
Формат : UTF-8
Идентификатор кодека : S_TEXT/UTF8
Идентификатор кодека/Информация : UTF-8 Plain Text
Язык : Russian
Default : Нет
Forced : Нет
Текст #2
Идентификатор : 5
Формат : UTF-8
Идентификатор кодека : S_TEXT/UTF8
Идентификатор кодека/Информация : UTF-8 Plain Text
Язык : English
Default : Нет
Forced : Нет

Релиз подготовлен 60 - fps

 
Показать сообщения:    

Текущее время: 11-Дек 07:06

Часовой пояс: UTC + 3


Вы не можете начинать темы
Вы не можете отвечать на сообщения
Вы не можете редактировать свои сообщения
Вы не можете удалять свои сообщения
Вы не можете голосовать в опросах
Вы не можете прикреплять файлы к сообщениям
Вы не можете скачивать файлы