Первому игроку приготовиться / Ready Player One (2018) BDRip 1080p | 60 fps Радиус / Radius (2017) BDRip 720p | 60 fps Дэдпул 2 / Deadpool 2 (2018) BDRip 1080p | 60 fps Такси 5 / Taxi 5 (2018) BDRip 1080p | 60 fps Тихое место / A Quiet Place (2018) BDRip 720p | 60 fps 10 на 10 / 10x10 (2018) BDRip 720p | 60 fps Первому игроку приготовиться / Ready Player One (2018) BDRip 720p | 60 fps Рэмпейдж / Rampage (2018) BDRip 720p | 60 fps
  1. Стаж:
    3 года 10 месяцев
    Сообщений:
    2396
    Пол:
    Мужской
    «Родители умеют обламывать, как никто другой» Информация
    Название: Секса не будет!!!
    Оригинальное название: Blockers
    Год выхода: 2018
    Жанр: Комедия
    Режиссер: Кэй Кэннон
    Сценарий: Брайан Кехо, Джим Кехо
    Продюсер: Крис Коулз, Крис Фентон, Эван Голдберг
    В ролях: Лесли Манн, Айк Баринхолц, Джон Сина, Кэтрин Ньютон, Джина Гершон, Джун Рафаэль, Сарайю Рао, Гэри Коул, Грэм Филлипс, Хэннибал Бёресс

    Сюжет:
    У трех подруг грандиозные планы на выпускной. Случайно об этом узнав, их родители решают во что бы то ни стало предотвратить непоправимое.

    Страна: США
    Продолжительность: 01:41:56

    Файл
    Кодек: H.264
    Формат: MKV
    Качество: BDRip 720p | 60 fps
    Видео: 1280 x 536 (2.388) | 59.940 fps | 10.0 Мбит/сек
    Аудио 01: AC3 | 2.0 | 48 kHz | 192 kbps | 16 bit | HDRezka Studio |
    Аудио 02: AC3 | 5.1 | 48 kHz | 448 kbps | 16 bit | english |
    Субтитры: английские

    MedifInfo

    Видео
    Идентификатор : 1
    Формат : AVC
    Формат/Информация : Advanced Video Codec
    Профиль формата : High@L4.1
    Параметр CABAC формата : Да
    Параметр ReFrames формата : 4 кадра
    Идентификатор кодека : V_MPEG4/ISO/AVC
    Продолжительность : 1 ч. 41 м.
    Битрейт : 9999 Кбит/сек
    Ширина : 1280 пикселей
    Высота : 536 пикселей
    Соотношение сторон : 2,40:1
    Режим частоты кадров : Постоянный
    Частота кадров : 59,880 кадров/сек
    Частота кадров в оригинале : 59,940 кадров/сек
    Цветовое пространство : YUV
    Субдискретизация насыщенности : 4:2:0
    Битовая глубина : 8 бит
    Тип развёртки : Прогрессивная
    Бит/(Пиксели*Кадры) : 0.243
    Размер потока : 6,97 Гбайт (92%)
    Заголовок : www.60-fps.org
    Библиотека кодирования : x264 core 155 r2901 7d0ff22
    Настройки программы : cabac=1 / ref=3 / deblock=1:-3:-3 / analyse=0x3:0x113 / me=umh / subme=9 / psy=1 / psy_rd=1.00:0.25 / mixed_ref=1 / me_range=32 / chroma_me=1 / trellis=1 / 8x8dct=1 / cqm=0 / deadzone=6,6 / fast_pskip=1 / chroma_qp_offset=-4 / threads=12 / lookahead_threads=1 / sliced_threads=0 / nr=0 / decimate=0 / interlaced=0 / bluray_compat=0 / constrained_intra=0 / bframes=3 / b_pyramid=2 / b_adapt=1 / b_bias=0 / direct=1 / weightb=1 / open_gop=0 / weightp=2 / keyint=599 / keyint_min=59 / scenecut=40 / intra_refresh=0 / rc_lookahead=40 / rc=2pass / mbtree=1 / bitrate=9999 / ratetol=1.0 / qcomp=0.80 / qpmin=0 / qpmax=69 / qpstep=4 / cplxblur=20.0 / qblur=0.5 / vbv_maxrate=62500 / vbv_bufsize=78125 / nal_hrd=none / filler=0 / ip_ratio=1.10 / aq=1:0.50
    Default : Да
    Forced : Нет
    Аудио #1
    Идентификатор : 2
    Формат : AC-3
    Формат/Информация : Audio Coding 3
    Расширение режима : CM (complete main)
    Параметр Endianness формата : Big
    Идентификатор кодека : A_AC3
    Продолжительность : 1 ч. 41 м.
    Вид битрейта : Постоянный
    Битрейт : 192 Кбит/сек
    Каналы : 2 канала
    Расположение каналов : Front: L R
    Частота : 48,0 КГц
    Битовая глубина : 16 бит
    Метод сжатия : С потерями
    Размер потока : 140 Мбайт (2%)
    Заголовок : HDRezka Studio
    Язык : Russian
    Default : Да
    Forced : Нет
    Аудио #2
    Идентификатор : 3
    Формат : AC-3
    Формат/Информация : Audio Coding 3
    Расширение режима : CM (complete main)
    Параметр Endianness формата : Big
    Идентификатор кодека : A_AC3
    Продолжительность : 1 ч. 41 м.
    Вид битрейта : Постоянный
    Битрейт : 448 Кбит/сек
    Каналы : 6 каналов
    Расположение каналов : Front: L C R, Side: L R, LFE
    Частота : 48,0 КГц
    Битовая глубина : 16 бит
    Метод сжатия : С потерями
    Размер потока : 327 Мбайт (4%)
    Заголовок : english
    Язык : English
    Default : Нет
    Forced : Нет
    Текст
    Идентификатор : 4
    Формат : UTF-8
    Идентификатор кодека : S_TEXT/UTF8
    Идентификатор кодека/Информация : UTF-8 Plain Text
    Язык : English
    Default : Нет
    Forced : Нет
    Меню
    00:00:00.000 : en:00:00:00.000
    00:02:50.087 : en:00:02:50.087
    00:10:02.143 : en:00:10:02.143
    00:14:50.139 : en:00:14:50.139
    00:22:11.956 : en:00:22:11.956
    00:26:09.109 : en:00:26:09.109
    00:32:02.963 : en:00:32:02.963
    00:35:18.450 : en:00:35:18.450
    00:40:06.529 : en:00:40:06.529
    00:44:33.546 : en:00:44:33.546
    00:49:58.245 : en:00:49:58.245
    00:55:14.770 : en:00:55:14.770
    00:59:26.521 : en:00:59:26.521
    01:05:34.472 : en:01:05:34.472
    01:10:20.633 : en:01:10:20.633
    01:15:47.001 : en:01:15:47.001
    01:22:48.213 : en:01:22:48.213
    01:26:38.819 : en:01:26:38.819
    01:31:15.970 : en:01:31:15.970
    01:34:08.560 : en:01:34:08.560

    Релиз подготовлен 60 - fps



Вы не можете начинать темы
Вы не можете отвечать на сообщения
Вы не можете редактировать свои сообщения
Вы не можете удалять свои сообщения
Вы не можете голосовать в опросах
Вы не можете прикреплять файлы к сообщениям
Вы не можете скачивать файлы