[Цитировать]
Kryl

«The truth is still out there»- Информация
Название: Секретные материалы
Оригинальное название: The X Files
Год выхода: 2016
Жанр: Фантастика, триллер, драма, детектив
Режиссер: Крис Картер, Дэрин Морган, Глен Морган
Сценарий: Крис Картер, Дэрин Морган, Глен Морган
Продюсер: Крис Картер, Дэрин Морган, Глен Морган
В ролях: Дэвид Духовны, Джиллиан Андерсон, Митч Пилледжи
--Сюжет:
Специальные агенты ФБР, Фокс Малдер и Дана Скалли, снова работают вместе, чтобы расследовать странные и необъяснимые дела, связанные с паранормальными явлениями.- Страна: США
Продолжительность: 6 серий ~ 00:45:00

Файл
Кодек: MPEG4/ISO/AVC H.264
Формат: MKV
Качество: WEBRip 1080p | 60 fps
Видео: 1920 x 1080 (1.778) | 59.940 fps | 8.0 Мбит/сек
Аудио 1: AC3 | 2.0 | 48 kHz | 192 kbps | 16 bit | ТВ3 |
Аудио 2: (1-4 серии) AC3 | 2.0 | 48 kHz | 192 kbps | 16 bit | Многоголосый профессиональный закадровый (Кравец) |
Аудио 3: AC3 | 5.1 | 48 kHz | 192 kbps | 16 bit | ENG |

MedifInfo

Видео
Идентификатор : 1
Формат : AVC
Формат/Информация : Advanced Video Codec
Профиль формата : High@L4.2
Параметр CABAC формата : Да
Параметр ReFrames формата : 3 кадра
Идентификатор кодека : V_MPEG4/ISO/AVC
Продолжительность : 43 м.
Вид битрейта : Переменный
Битрейт : 7816 Кбит/сек
Максимальный битрейт : 8000 Кбит/сек
Ширина : 1920 пикселей
Высота : 1080 пикселей
Соотношение сторон : 16:9
Режим частоты кадров : Постоянный
Частота кадров : 59,880 кадров/сек
Частота кадров в оригинале : 59,940 кадров/сек
Стандарт вещания : PAL
Цветовое пространство : YUV
Субдискретизация насыщенности : 4:2:0
Битовая глубина : 8 бит
Тип развёртки : Прогрессивная
Бит/(Пиксели*Кадры) : 0.063
Размер потока : 2,40 Гбайт (91%)
Заголовок : www.60-fps.org
Язык : English
Default : Да
Forced : Нет
Основные цвета : BT.709
Характеристики трансфера : BT.709
Коэффициенты матрицы : BT.709
colour_range : Limited
DURATION : 00:43:57.952000000
NUMBER_OF_FRAMES : 82437
NUMBER_OF_BYTES : 63311616
_STATISTICS_WRITING_APP : mkvmerge v7.6.0 ('Garden of Dreams') 32bit built on Feb 8 2015 12:51:39
_STATISTICS_WRITING_DATE_UTC : 2016-01-26 19:06:47
_STATISTICS_TAGS : BPS DURATION NUMBER_OF_FRAMES NUMBER_OF_BYTES
Аудио #1
Идентификатор : 2
Формат : AC-3
Формат/Информация : Audio Coding 3
Расширение режима : CM (complete main)
Параметр Endianness формата : Big
Идентификатор кодека : A_AC3
Продолжительность : 43 м.
Вид битрейта : Постоянный
Битрейт : 192 Кбит/сек
Каналы : 2 канала
Расположение каналов : Front: L R
Частота : 48,0 КГц
Битовая глубина : 16 бит
Метод сжатия : С потерями
Размер потока : 60,4 Мбайт (2%)
Заголовок : ТВ 3
Default : Да
Forced : Да
Аудио #2
Идентификатор : 3
Формат : AC-3
Формат/Информация : Audio Coding 3
Расширение режима : CM (complete main)
Параметр Endianness формата : Big
Идентификатор кодека : A_AC3
Продолжительность : 43 м.
Вид битрейта : Постоянный
Битрейт : 192 Кбит/сек
Каналы : 2 канала
Расположение каналов : Front: L R
Частота : 48,0 КГц
Битовая глубина : 16 бит
Метод сжатия : С потерями
Размер потока : 60,4 Мбайт (2%)
Заголовок : Кравец
Язык : Russian
Default : Нет
Forced : Нет
Аудио #3
Идентификатор : 4
Формат : E-AC-3
Формат/Информация : Audio Coding 3
Параметр Endianness формата : Big
Идентификатор кодека : A_EAC3
Продолжительность : 43 м.
Вид битрейта : Постоянный
Битрейт : 192 Кбит/сек
Каналы : 6 каналов
Расположение каналов : Front: L C R, Side: L R, LFE
Частота : 48,0 КГц
Метод сжатия : С потерями
Размер потока : 60,4 Мбайт (2%)
Заголовок : ENG
Язык : English
Default : Нет
Forced : Нет
Скриншоты

1 серия

2 серия

3 серия

4 серия

5 серия

6 серия

Релиз подготовлен 60 - fps



Последний раз редактировалось: Kryl (2016-02-25 06:46), всего редактировалось 10 раз(а)

[Цитировать]
wolsh

Спасибо большое!!!!!!!! Прибо Подмигиваю льшое!

[Цитировать]
killer80

Спасибо, очень быстро!

[Цитировать]
ekuprienko

Спасибо огромное!

[Цитировать]
Anvar

Умник

[Цитировать]
ekuprienko

когда заключительную серию зальёшь?

[Цитировать]
Kryl

5302когда заключительную серию зальёшь?
Завтра с утра ..

[Цитировать]
ekuprienko

ок, спасибо!

[Цитировать]
ekuprienko

когда-же 6я серия?

[Цитировать]
kirya1802

привет народ где последняя серия ПЛИЗ!!!

[Цитировать]
Kryl

Готово .

[Цитировать]
ekuprienko

Спасибо за предоставленный релиз!

[Цитировать]
Kryl

5314Спасибо за предоставленный релиз!
Пожалуйста Улыбаюсь

[Цитировать]
drleevsi

А что 6ая серия это последняя? Как-то развязки нет...
 
Показать сообщения:    

Текущее время: 03-Дек 16:45

Часовой пояс: UTC + 3


Вы не можете начинать темы
Вы не можете отвечать на сообщения
Вы не можете редактировать свои сообщения
Вы не можете удалять свои сообщения
Вы не можете голосовать в опросах
Вы не можете прикреплять файлы к сообщениям
Вы не можете скачивать файлы