«А вам слабо развезти 2 миллиарда подарков за одну ночь?»- Информация
Название: Секретная служба Санта-Клауса
Оригинальное название: Arthur Christmas
Год выхода: 2011
Жанр: мультфильм, комедия, семейный, приключения, фэнтези
Режиссер: Сара Смит, Бэрри Кук
Сценарий: Питер Бейнхэм, Сара Смит
Продюсер: Стив Пеграм, Шерил Эбуд, Крис Джун
Персонажей озвучивали: Джеймс МакЭвой, Хью Лори, Билл Найи, Джим Броудбент, Имелда Стонтон, Эшли Дженсен, Марк Вуттон, Лора Линни, Ева Лонгория, Рамона Маркес
--Сюжет:

Фильм приоткрывает завесу тайны над тем, каким образом Санта-Клаусу удается развезти подарки всем детям на Земле всего за одну ночь.
- - Страна: Великобритания, США
Продолжительность: 01:37:32

Файл
Кодек: MPEG4/ISO/AVC H.264
Формат: MKV
Качество: BDRip-AVC | 60 fps
Видео: 1024x552 (1.855) | 59.940 fps | 4.6 Мбит/сек
Аудио: AC3 | 5.1 | 48 kHz | 640 kbps | 16 bit | Дубляж |
Субтитры: русские (Форсированные), русские (Полные), английские (Полные)

MedifInfo

Video
ID : 1
Format : AVC
Format/Info : Advanced Video Codec
Format profile : High@L4.1
Format settings, CABAC : Yes
Format settings, ReFrames : 4 frames
Codec ID : V_MPEG4/ISO/AVC
Duration : 1h 37mn
Bit rate : 4 600 Kbps
Width : 1 024 pixels
Height : 552 pixels
Display aspect ratio : 1.855
Frame rate : 59.940 fps
Color space : YUV
Chroma subsampling : 4:2:0
Bit depth : 8 bits
Scan type : Progressive
Bits/(Pixel*Frame) : 0.136
Stream size : 3.07 GiB (86%)
Writing library : x264 core 146 r2538 121396c
Encoding settings : cabac=1 / ref=3 / deblock=1:0:0 / analyse=0x3:0x113 / me=umh / subme=9 / psy=1 / psy_rd=1.00:0.10 / mixed_ref=1 / me_range=32 / chroma_me=1 / trellis=2 / 8x8dct=1 / cqm=0 / deadzone=21,11 / fast_pskip=0 / chroma_qp_offset=-3 / threads=12 / lookahead_threads=3 / sliced_threads=0 / nr=0 / decimate=1 / interlaced=0 / bluray_compat=0 / constrained_intra=0 / bframes=16 / b_pyramid=2 / b_adapt=2 / b_bias=0 / direct=3 / weightb=1 / open_gop=0 / weightp=2 / keyint=250 / keyint_min=25 / scenecut=40 / intra_refresh=0 / rc_lookahead=40 / rc=2pass / mbtree=0 / bitrate=4600 / ratetol=1.0 / qcomp=0.60 / qpmin=0 / qpmax=69 / qpstep=4 / cplxblur=20.0 / qblur=0.5 / vbv_maxrate=14000 / vbv_bufsize=14000 / nal_hrd=none / filler=0 / ip_ratio=1.40 / pb_ratio=1.30 / aq=1:1.00
Language : English
Default : Yes
Forced : No
Audio
ID : 2
Format : AC-3
Format/Info : Audio Coding 3
Mode extension : CM (complete main)
Codec ID : A_AC3
Duration : 1h 37mn
Bit rate mode : Constant
Bit rate : 640 Kbps
Channel(s) : 6 channels
Channel positions : Front: L C R, Side: L R, LFE
Sampling rate : 48.0 KHz
Bit depth : 16 bits
Compression mode : Lossy
Stream size : 447 MiB (12%)
Title : Дубляж
Language : Russian
Default : Yes
Forced : No
Text #1
ID : 3
Format : UTF-8
Codec ID : S_TEXT/UTF8
Codec ID/Info : UTF-8 Plain Text
Title : Форсированные
Language : Russian
Default : Yes
Forced : No
Text #2
ID : 4
Format : UTF-8
Codec ID : S_TEXT/UTF8
Codec ID/Info : UTF-8 Plain Text
Title : Полные
Language : Russian
Default : No
Forced : No
Text #3
ID : 5
Format : UTF-8
Codec ID : S_TEXT/UTF8
Codec ID/Info : UTF-8 Plain Text
Title : Полные
Language : English
Default : No
Forced : No
Menu
00:00:00.000 : :Chapter 01
00:04:37.777 : :Chapter 02
00:08:52.615 : :Chapter 03
00:16:27.152 : :Chapter 04
00:19:48.729 : :Chapter 05
00:23:23.819 : :Chapter 06
00:28:59.320 : :Chapter 07
00:33:28.923 : :Chapter 08
00:39:22.276 : :Chapter 09
00:44:45.557 : :Chapter 10
00:52:49.374 : :Chapter 11
00:58:48.942 : :Chapter 12
01:06:00.289 : :Chapter 13
01:13:49.341 : :Chapter 14
01:20:36.957 : :Chapter 15
01:29:48.174 : :Chapter 16
 
Показать сообщения:    

Текущее время: 10-Дек 19:37

Часовой пояс: UTC + 3


Вы не можете начинать темы
Вы не можете отвечать на сообщения
Вы не можете редактировать свои сообщения
Вы не можете удалять свои сообщения
Вы не можете голосовать в опросах
Вы не можете прикреплять файлы к сообщениям
Вы не можете скачивать файлы