[Цитировать]
mimok

Седьмой сын / Seventh Son (2014) BDRip 720p | 60fps«....»- Информация о фильме
Название: Седьмой сын
Оригинальное название: Seventh Son
Год выхода: 2014
Жанр: Фэнтези, приключения
Режиссер: Сергей Бодров
Продюсер: Бэзил Иваник, Томас Тулл, Лайонел Уигрэм
В ролях: Бен Барнс, Джефф Бриджес, Джулианна Мур, Алисия Викандер, Кит Харингтон, Джимон Хонсу, Оливия Уильямс, Антье Трауэ, Джейсон Скотт Ли, Дэвид Кабитт
Описание фильма:
Рассказ в фильме пойдет про парня, который, так уж вышло, стал седьмым сыном седьмого сына. А только такой человек может стать ведьмаком. Но этого недостаточно, чтобы именовать себя так — необходимо пройти массу тренировок, а также усердно учиться. Ведь главное оружие ведьмака — это его ум. Хоть в народе их не любят, но кто-то же обязан убивать нечисть, хранить землю от сил зла и делать всю грязную работу? Юный Том Уорд попробует стать тем самым учеником ведьмака.
Страна: США, Великобритания, Канада, Китай
Студия: Legendary Pictures, China Film Co., Thunder Road
Продолжительность: 01:41:59
Перевод: Дублированный (Лицензия)
Субтитры: Отсутствуют

Дата мировой премьеры: 17 декабря 2014
Дата российской премьеры: 1 января 2015, «UPI»
Дата выхода DVD релиза: 30 апреля 2015, «Двадцатый Век Фокс СНГ»
Дата выхода Blu-Ray релиза: 30 апреля 2015, «Двадцатый Век Фокс СНГ»
Файл
Формат: MKV
Кодек: MPEG-4 AVC/H.264
Качество: BDRip 720p
Видео: ~ 4561 Кбит/сек, 1280 x 544, 59.940 кадров/сек
Аудио: AC3 5.1, 48.0 KHz, 640 Кбит/сек - Русский

MediaInfo

Общее
Уникальный идентификатор : 184510954954690343325273370671459585786 (0x8ACF846F2E14DAD8B4F9833130AFCEFA)
Полное имя : D:\Торренты\Seventh Son 60fps.mkv
Формат : Matroska
Версия формата : Version 2
Размер файла : 3,78 Гбайт
Продолжительность : 1 ч. 41 м.
Общий поток : 5306 Кбит/сек
Дата кодирования : UTC 2015-05-01 13:56:40
Программа кодирования : mkvmerge v6.9.1 ('Blue Panther') 64bit built on Apr 18 2014 18:23:38
Библиотека кодирования : libebml v1.3.0 + libmatroska v1.4.1
Видео
Идентификатор : 1
Формат : AVC
Формат/Информация : Advanced Video Codec
Профиль формата : High@L4.1
Параметр CABAC формата : Да
Параметр ReFrames формата : 6 кадров
Идентификатор кодека : V_MPEG4/ISO/AVC
Продолжительность : 1 ч. 41 м.
Битрейт : 4561 Кбит/сек
Ширина : 1280 пикселей
Высота : 544 пикселя
Соотношение сторон : 2,35:1
Режим частоты кадров : Постоянный
Частота кадров : 59,880 кадров/сек
Частота кадров в оригинале : 59,940 кадров/сек
Цветовое пространство : YUV
Субдискретизация насыщенности : 4:2:0
Битовая глубина : 8 бит
Тип развёртки : Прогрессивная
Бит/(Пиксели*Кадры) : 0.109
Размер потока : 3,25 Гбайт (86%)
Заголовок : Release by mimok
Библиотека кодирования : x264 core 130 r2273 b3065e6
Настройки программы : cabac=1 / ref=6 / deblock=1:0:0 / analyse=0x3:0x133 / me=umh / subme=8 / psy=1 / psy_rd=1.00:0.15 / mixed_ref=1 / me_range=20 / chroma_me=1 / trellis=2 / 8x8dct=1 / cqm=0 / deadzone=21,11 / fast_pskip=0 / chroma_qp_offset=-3 / threads=6 / lookahead_threads=2 / sliced_threads=0 / nr=0 / decimate=0 / interlaced=0 / bluray_compat=0 / constrained_intra=0 / bframes=8 / b_pyramid=2 / b_adapt=2 / b_bias=0 / direct=1 / weightb=1 / open_gop=0 / weightp=2 / keyint=250 / keyint_min=25 / scenecut=40 / intra_refresh=0 / rc=crf / mbtree=0 / crf=19.0 / qcomp=0.63 / qpmin=10 / qpmax=51 / qpstep=4 / ip_ratio=1.40 / pb_ratio=1.30 / aq=1:1.20
Default : Да
Forced : Нет
Аудио
Идентификатор : 2
Формат : AC-3
Формат/Информация : Audio Coding 3
Расширение режима : CM (complete main)
Параметр Endianness формата : Big
Идентификатор кодека : A_AC3
Продолжительность : 1 ч. 41 м.
Вид битрейта : Постоянный
Битрейт : 640 Кбит/сек
Каналы : 6 каналов
Расположение каналов : Front: L C R, Side: L R, LFE
Частота : 48,0 КГц
Битовая глубина : 16 бит
Метод сжатия : С потерями
Размер потока : 467 Мбайт (12%)
Заголовок : Dub
Язык : Russian
Default : Да
Forced : Нет

Скринлист

Скриншоты:

Релиз подготовлен 60 - fps

[Цитировать]
txupedigi

thanks

[Цитировать]
Moguta

1080p будет?..

[Цитировать]
mimok

25091080p будет?..
Нет!

[Цитировать]
Tranch

2560Здравствуйте mimok! От Вас Восхождение Юпитер будет? В другом месте просил у Вас каратель war zone сделать и особо опасен, если не против, можно я скину ещё несколько любопытных блокбастеров: Вспомнить всё (2012), Война миров Z, Дредд (2012), Оз: Великий и Ужасный, Индиана Джонс и Королевство хрустального черепа, Перл-Харбор, Халк (2003), Призрачный патруль, Фантастическая четвёрка 1-2, Обливион, Спиди Гонщик, Рыцарь дня, Солт, Мистер и миссис Смит, Особое мнение, Бэтмен навсегда. Есть ли шансы увидеть что-то из этого списка от Вас?
Не перестаю восхищаться Вашими релизами, пожалуй, лучшие 60 и 48 fps!
Заранее спасибо за ответ :)

[Цитировать]
mimok

Tranch, про Карателя забыл. Сейчас времени нет делать, ремонтом занят в квартире.Как смогу,сделаю.

[Цитировать]
Tranch

mimok,
Ясно. Жду :)

[Цитировать]
JuiceJet

Пасибо за релиз!
 
Показать сообщения:    

Текущее время: 08-Дек 19:06

Часовой пояс: UTC + 3


Вы не можете начинать темы
Вы не можете отвечать на сообщения
Вы не можете редактировать свои сообщения
Вы не можете удалять свои сообщения
Вы не можете голосовать в опросах
Вы не можете прикреплять файлы к сообщениям
Вы не можете скачивать файлы