[Цитировать]
kamikkadze

Scorpions - Return to Forever (Tour Edition) (2016 г.) DVDRip | 60 fps

Информация о Клипе:
Исполнители: Scorpions
Название: Return to Forever (Tour Edition)
Год выпуска: 2016 г.
Жанр: Rock, Melodic Hard Rock
Продолжительность: 03:34:55

Файл:
Формат видео: MKV
Качество видео: DVDRip
Видео кодек: H.264
Аудио кодек: AC3
Видео: 720x408 | 59.940 fps | 6713 Кбит/сек
Аудио: AC3 | 2 channels | 48 kHz | 384 Кбит/сек

Автор Рипа:

Tracklist Disc I: Live In Brooklyn, Ny - September 12, 2015

1. Going Out With A Bang - Live In Brooklyn, Ny - September 12, 2015
2. Make It Real - Live In Brooklyn, Ny - September 12, 2015
3. The Zoo - Live In Brooklyn, Ny - September 12, 2015
4. Coast To Coast - Live In Brooklyn, Ny - September 12, 2015
5. Catch Your Train
6. We Built This House - Live In Brooklyn, Ny - September 12, 2015
7. Delicate Dance - Live In Brooklyn, Ny - September 12, 2015
8. Send Me An Angel
9. Wind Of Change - Live In Brooklyn, Ny - September 12, 2015
10.Rock'n'roll Band - Live In Brooklyn, Ny - September 12, 2015
11. Dynamite - Live In Brooklyn, Ny - September 12, 2015
12. In The Line Of Fire - Live In Brooklyn, Ny - September 12, 2015
13. Kottack Attack - Live In Brooklyn, Ny - September 12, 2015
14. Blackout - Live In Brooklyn, Ny - September 12, 2015
15. No One Like You - Live In Brooklyn, Ny - September 12, 2015 - Scorpions Feat. Brandon Niederauer
16. Big City Nights - Live In Brooklyn, Ny - September 12, 2015
17. Still Loving You - Live In Brooklyn, Ny - September 12, 2015
18. Rock You Like A Hurricane - Live In Brooklyn, Ny - September 12, 2015
19. On The Road In America
20. We Built This House
21. Going Out With A Bang
22. We Built This House - Lyric Video
23. Eye Of The Storm - Lyric Video
24. Return To Forever Track-By-Track Interview - English
25. Return To Forever Track-By-Track Interview - German

Tracklist Disc II: Live At Hellfest, France - June 20, 2015

1. Going Out With A Bang - Live At Hellfest, France - June 20, 2015
2. Make It Real - Live At Hellfest, France - June 20, 2015
3. The Zoo - Live At Hellfest, France - June 20, 2015
4. Coast To Coast - Live At Hellfest, France - June 20, 2015
5. Catch Your Train
6. We Built This House - Live At Hellfest, France - June 20, 2015
7. Delicate Dance (Matthias Solo) - Live At Hellfest, France - June 20, 2015
8. Send Me An Angel
9. Wind Of Change - Live At Hellfest, France - June 20, 2015
10. Big City Nights - Live At Hellfest, France - June 20, 2015
11. Dynamite - Live At Hellfest, France - June 20, 2015
12. In The Line Of Fire - Live At Hellfest, France - June 20, 2015
13. Kottack Attack - Live At Hellfest, France - June 20, 2015
14. Crazy World - Live At Hellfest, France - June 20, 2015
15. Rock'n'roll Band - Live At Hellfest, France - June 20, 2015
16. Blackout - Live At Hellfest, France - June 20, 2015
17. Still Loving You - Live At Hellfest, France - June 20, 2015
18. Rock You Like A Hurricane - Live At Hellfest, France - June 20, 2015
19. Return To Forever - Generic Interview - English
20. Return To Forever - Generic Interview - German

MediaInfo

Видео
Идентификатор : 1
Формат : AVC
Формат/Информация : Advanced Video Codec
Профиль формата : High@L4.1
Параметр CABAC формата : Да
Параметр ReFrames формата : 4 кадра
Режим смешивания : Header stripping
Идентификатор кодека : V_MPEG4/ISO/AVC
Продолжительность : 1 ч. 57 м.
Битрейт : 6713 Кбит/сек
Ширина : 720 пикселей
Высота : 408 пикселей
Соотношение сторон : 16:9
Режим частоты кадров : Постоянный
Частота кадров : 59,940 (59940/1000) кадров/сек
Цветовое пространство : YUV
Субдискретизация насыщенности : 4:2:0
Битовая глубина : 8 бит
Тип развёртки : Прогрессивная
Бит/(Пиксели*Кадры) : 0.381
Размер потока : 5,40 Гбайт (93%)
Заголовок : Scorpions - Return to Forever 1 (Tour Edition) « R.G 60-FPS Rip By Kamikkadze »
Библиотека кодирования : x264 core 146 r2538 121396c
Настройки программы : cabac=1 / ref=3 / deblock=1:-1:-1 / analyse=0x3:0x133 / me=umh / subme=9 / psy=1 / psy_rd=1.00:0.15 / mixed_ref=1 / me_range=32 / chroma_me=1 / trellis=2 / 8x8dct=1 / cqm=0 / deadzone=21,11 / fast_pskip=1 / chroma_qp_offset=-3 / threads=6 / lookahead_threads=1 / sliced_threads=0 / nr=0 / decimate=1 / interlaced=0 / bluray_compat=0 / constrained_intra=0 / bframes=3 / b_pyramid=2 / b_adapt=2 / b_bias=0 / direct=1 / weightb=1 / open_gop=0 / weightp=2 / keyint=250 / keyint_min=25 / scenecut=40 / intra_refresh=0 / rc=abr / mbtree=0 / bitrate=6713 / ratetol=1.0 / qcomp=0.60 / qpmin=0 / qpmax=69 / qpstep=4 / ip_ratio=1.40 / pb_ratio=1.30 / aq=1:1.00
Default : Да
Forced : Нет
Аудио
Идентификатор : 2
Формат : AC-3
Формат/Информация : Audio Coding 3
Расширение режима : CM (complete main)
Параметр Endianness формата : Big
Режим смешивания : Header stripping
Идентификатор кодека : A_AC3
Продолжительность : 1 ч. 57 м.
Вид битрейта : Постоянный
Битрейт : 384 Кбит/сек
Каналы : 2 канала
Расположение каналов : Front: L R
Частота : 48,0 КГц
Частота кадров : 31,250 кадров/сек (1536 spf)
Метод сжатия : С потерями
Размер потока : 322 Мбайт (5%)
Default : Да
Forced : Нет
Просьба к переливающим на другие сайты, в оформлении указывайте пожалуйста авторство рипа - Kamikkadze

Релиз подготовлен 60 - fps



Последний раз редактировалось: kamikkadze (2016-05-17 13:43), всего редактировалось 1 раз

[Цитировать]
sly

спасибо! Сидер ау!! дайте скачать :)) Подмигиваю Плачу

[Цитировать]
kamikkadze

5866спасибо! Сидер ау!! дайте скачать :)) Подмигиваю Плачу
отдача идет по максимуму Подмигиваю
 
Показать сообщения:    

Текущее время: 05-Дек 01:25

Часовой пояс: UTC + 3


Вы не можете начинать темы
Вы не можете отвечать на сообщения
Вы не можете редактировать свои сообщения
Вы не можете удалять свои сообщения
Вы не можете голосовать в опросах
Вы не можете прикреплять файлы к сообщениям
Вы не можете скачивать файлы