1. Longevity:
    7 years
    Posts:
    310
    Gender:
    Male
    Schiller: Zeitreise Live (2016) BDRip 720p | 60fps«....»- Информация
    Название: Schiller: Zeitreise Live
    Оригинальное название: Schiller: Zeitreise Live
    Год выхода: 2016
    Жанр: Electronic, Ambient, Downtempo, Synth-pop
    Режиссер: Martin Müller
    Исполнители: Christopher von Deylen - Synthesizer; Tricia McTeague - Acoustic Guitar, Percussion, Voice; Doug Wimbish - Bass; Flo Dauner - Drums; Ferdinand Kirner - Guitar, Synthesizer; Carmel Echols, Chaz Mason, Samantha Nelson - Vocals; Arlissa - Guest Vocals
    Описание:
    Немецкий исключительный арт-музыкант и продюсер Кристофер фон Дейлен покорил публику специальной смесью поп-музыки и эмбиент, своими разнообразнейшими звуковыми космическими электропутешествиями во времени, атмосферно-танцевальными ритмами и визуальными эффектами, которые слушаются с затаённым дыханием.
    Страна: Германия
    Студия: Universal Music
    Продолжительность: 01:55:48
    Перевод: Отсутствует

    Файл
    Формат: MKV
    Кодек: MPEG-4 AVC/H.264
    Качество: BDRip 720p
    Видео: ~ 5897 Кбит/сек, 1280 x 720, 60.000 кадров/сек
    Аудио: AC3 5.1, 48.0 KHz, 640 Кбит/сек - Немецкий

    Треклист

    01. Zeitreise I 2:14
    02. Schwerelos 5:35
    03. The Future III 4:19
    04. Ile Aye 3:52
    05. Nachtflug 6:12
    06. Rubinrot 5:14
    07. Playing With Madness 4:24
    08. Ultramarin 5:12
    09. Berlin - Moskau 5:28
    10. Salton Sea 3:28
    11. Mitternacht 5:53
    12. Polarstern 4:58
    13. Looking Out For You 8:51
    14. Not In Love 4:11
    15. Paradise 4:29
    16. Once Upon A Time 4:29
    17. Ein Schöner Tag 4:53
    18. Dancing In The Dark 5:16
    19. Das Glockenspiel 4:01
    20. Sehnsucht 4:41
    21. Schiller 5:36
    22. Ruhe 4:16
    23. For You 8:05

    MediaInfo

    Общее
    Уникальный идентификатор : 244702627537792304726911852463413734108 (0xB81803044F8E6AB9A240FDC48CEF2ADC)
    Полное имя : Schiller - Zeitreise Live 60fps.mkv
    Формат : Matroska
    Версия формата : Version 2
    Размер файла : 5,40 Гбайт
    Продолжительность : 1 ч. 55 м.
    Общий поток : 6670 Кбит/сек
    Дата кодирования : UTC 2017-01-31 13:34:43
    Программа кодирования : mkvmerge v6.1.0 ('Old Devil') built on Mar 4 2013 09:10:42
    Библиотека кодирования : libebml v1.3.0 + libmatroska v1.4.0
    Видео
    Идентификатор : 1
    Формат : AVC
    Формат/Информация : Advanced Video Codec
    Профиль формата : [email protected]
    Параметр CABAC формата : Да
    Параметр ReFrames формата : 6 кадров
    Идентификатор кодека : V_MPEG4/ISO/AVC
    Продолжительность : 1 ч. 55 м.
    Битрейт : 5897 Кбит/сек
    Ширина : 1280 пикселей
    Высота : 720 пикселей
    Соотношение сторон : 16:9
    Режим частоты кадров : Постоянный
    Частота кадров : 60,000 кадров/сек
    Цветовое пространство : YUV
    Субдискретизация насыщенности : 4:2:0
    Битовая глубина : 8 бит
    Тип развёртки : Прогрессивная
    Бит/(Пиксели*Кадры) : 0.107
    Размер потока : 4,77 Гбайт (88%)
    Библиотека кодирования : x264 core 130 r2273 b3065e6
    Настройки программы : cabac=1 / ref=6 / deblock=1:-1:-1 / analyse=0x3:0x133 / me=umh / subme=8 / psy=1 / psy_rd=1.00:0.15 / mixed_ref=1 / me_range=20 / chroma_me=1 / trellis=2 / 8x8dct=1 / cqm=0 / deadzone=21,11 / fast_pskip=0 / chroma_qp_offset=-3 / threads=6 / lookahead_threads=2 / sliced_threads=0 / nr=0 / decimate=0 / interlaced=0 / bluray_compat=0 / constrained_intra=0 / bframes=8 / b_pyramid=2 / b_adapt=2 / b_bias=0 / direct=1 / weightb=1 / open_gop=0 / weightp=2 / keyint=250 / keyint_min=25 / scenecut=40 / intra_refresh=0 / rc=crf / mbtree=0 / crf=17.0 / qcomp=0.63 / qpmin=10 / qpmax=51 / qpstep=4 / ip_ratio=1.40 / pb_ratio=1.30 / aq=2:1.20
    Default : Да
    Forced : Нет
    Аудио
    Идентификатор : 2
    Формат : AC-3
    Формат/Информация : Audio Coding 3
    Расширение режима : CM (complete main)
    Параметр Endianness формата : Big
    Идентификатор кодека : A_AC3
    Продолжительность : 1 ч. 55 м.
    Вид битрейта : Постоянный
    Битрейт : 640 Кбит/сек
    Каналы : 6 каналов
    Расположение каналов : Front: L C R, Side: L R, LFE
    Частота : 48,0 КГц
    Частота кадров : 31,250 кадров/сек (1536 spf)
    Метод сжатия : С потерями
    Размер потока : 530 Мбайт (10%)
    Default : Да
    Forced : Нет
    Скриншоты:

    Release was prepared by 60-fps.org

  2. Longevity:
    4 years 11 months
    Posts:
    110
    Gender:
    Male
    А в 1080р будет?
    01-Feb-2017 21:16 (after 8 hours)
  3. Longevity:
    7 years
    Posts:
    310
    Gender:
    Male
    7332А в 1080р будет?
    нет
    02-Feb-2017 11:33 (after 14 hours)
  4. Longevity:
    4 years 11 months
    Posts:
    110
    Gender:
    Male
    7334
    7332А в 1080р будет?
    нет
    Жаль. :(
    02-Feb-2017 18:06 (after 6 hours)


You cannot post new topics in this forum
You cannot reply to topics in this forum
You cannot edit your posts in this forum
You cannot delete your posts in this forum
You cannot vote in polls in this forum
You cannot attach files in this forum
You cannot download files in this forum