Топ Топиков за 24 часа
 
Megan Rain (2017) Full HD 1080p | 60 fps BIG ASS CHICKS IN ACTION (2017) Full HD 1080p | 60 fps SKILLED SLUT LOVES HER JOB (2017) Full HD 1080p | 60 fps Natalia Starr (2017) Full HD 1080p | 60 fps SASHA FOXXX BLOWJOB (2017) Full HD 1080p | 60 fps Honey Gold (2017) HD 720p | 60 fps Couple (2016) Full HD 1080p | 60 fps Preppy Girl Threesome Get Three BBCs (2016) HD 1080p | 60 fps HOT BLACK GIRLS CREAMPIED(2017) Full HD 1080p | 60 fps Illusion (2016) Full HD 1080p | 60 fps Dedicated Pledge (2017) Full HD 1080p | 60 fps Peyton Coast & Ally Tate (2016) Full HD 1080p | 60 fps
  1. Стаж:
    1 год 3 месяца
    Сообщений:
    303
    Пол:
    Мужской
     
    Информация
    Название: SASHA FOXXX BLOWJOB
    Год выхода: 2017
    Жанр: Blowjob Cumshot Blowjob POV Brunette
    В ролях: Sasha Foxxx
    --Сюжет:
    Blowjob Brunette Cumshot Pornstar Sasha Foxxx Pov
    Страна: США
    Продолжительность: 00:14:06

    Файл
    Кодек: MPEG4/ISO/AVC High@L4.1
    Формат: MP4
    Качество: Full HD 1080p 60 fps
    Видео: 1920 x 1080 (1.778) | 60.000 fps | 4846 Кбит/сек
    Аудио: AAC | 2.0 | 48 kHz | 192 Кбит/сек | 16 bit | ENG |

    MedifInfo

    Видео
    Идентификатор : 1
    Формат : AVC
    Формат/Информация : Advanced Video Codec
    Профиль формата : High@L4.1
    Параметр CABAC формата : Да
    Параметр ReFrames формата : 4 кадра
    Идентификатор кодека : avc1
    Идентификатор кодека/Информация : Advanced Video Coding
    Продолжительность : 14 м. 6 с.
    Битрейт : 4846 Кбит/сек
    Ширина : 1920 пикселей
    Высота : 1080 пикселей
    Соотношение сторон : 16:9
    Режим частоты кадров : Постоянный
    Частота кадров : 60,000 кадров/сек
    Цветовое пространство : YUV
    Субдискретизация насыщенности : 4:2:0
    Битовая глубина : 8 бит
    Тип развёртки : Прогрессивная
    Бит/(Пиксели*Кадры) : 0.039
    Размер потока : 486 Мбайт (96%)
    Библиотека кодирования : x264 core 148 r333 90a61ec
    Настройки программы : cabac=1 / ref=4 / deblock=1:-1:-1 / analyse=0x3:0x113 / me=hex / subme=8 / psy=1 / psy_rd=1.00:0.15 / mixed_ref=1 / me_range=16 / chroma_me=1 / trellis=2 / 8x8dct=1 / cqm=0 / deadzone=21,11 / fast_pskip=1 / chroma_qp_offset=-3 / threads=4 / lookahead_threads=1 / sliced_threads=0 / nr=0 / decimate=1 / interlaced=0 / bluray_compat=0 / constrained_intra=0 / bframes=3 / b_pyramid=2 / b_adapt=1 / b_bias=0 / direct=3 / weightb=1 / open_gop=0 / weightp=2 / keyint=250 / keyint_min=25 / scenecut=0 / intra_refresh=0 / rc_lookahead=50 / rc=abr / mbtree=1 / bitrate=4846 / ratetol=1.0 / qcomp=0.60 / qpmin=0 / qpmax=69 / qpstep=4 / ip_ratio=1.40 / aq=1:1.00
    Аудио
    Идентификатор : 2
    Формат : AAC
    Формат/Информация : Advanced Audio Codec
    Профиль формата : LC
    Идентификатор кодека : 40
    Продолжительность : 14 м. 6 с.
    Вид битрейта : Переменный
    Битрейт : 192 Кбит/сек
    Каналы : 2 канала
    Расположение каналов : Front: L R
    Частота : 44,1 КГц
    Частота кадров : 43,066 кадра/сек (1024 spf)
    Метод сжатия : С потерями
    Размер потока : 19,2 Мбайт (4%)
    Default : Да
    Alternate group : 1

    Скрин



    Последний раз редактировалось: Талямба (2017-06-21 22:50), всего редактировалось 1 раз
  2. Стаж:
    1 год 3 месяца
    Сообщений:
    303
    Пол:
    Мужской
     
    начнём с прелюдий... Смеюсь
    21-Июн-2017 22:35 (спустя 18 минут)
  3. Стаж:
    3 года 2 месяца
    Сообщений:
    2116
    Пол:
    Мужской
     
    Обезьяна
    21-Июн-2017 22:40 (спустя 4 минуты)
  4. Стаж:
    9 месяцев 15 дней
    Сообщений:
    15
    Пол:
    Мужской
     
    почему битрейт мало?
    22-Июн-2017 18:52 (спустя 20 часов)
  5. Стаж:
    1 год 3 месяца
    Сообщений:
    303
    Пол:
    Мужской
     
    anonimgo, ты хочешь разглядеть морщинки на клиторе... ? Смеюсь
    Сильно не заморачиваюсь с битрейтом... Подмигиваю у меня железо не сильно мощное не могу пока залить в крутом качестве,уж простите... Краснею
    22-Июн-2017 20:13 (спустя 1 час 21 минута)
  6. Стаж:
    9 месяцев 15 дней
    Сообщений:
    15
    Пол:
    Мужской
     
    8022anonimgo, ты хочешь разглядеть морщинки на клиторе... ? Смеюсь
    Сильно не заморачиваюсь с битрейтом... Подмигиваю у меня железо не сильно мощное не могу пока залить в крутом качестве,уж простите... Краснею
    просто привык 8 10 мбит Смеюсь
    22-Июн-2017 21:41 (спустя 1 час 28 минут)
  7. Стаж:
    1 год 3 месяца
    Сообщений:
    303
    Пол:
    Мужской
     
    anonimgo, неее,я пока такое не смогу сделать... для такой движухи нужно почти ферму для майнинга подключать... Краснею
    22-Июн-2017 21:54 (спустя 12 минут)
  8. Стаж:
    4 месяца 16 дней
    Сообщений:
    1
    Пол:
    Мужской
     
    nice :)
    26-Ноя-2017 10:40 (спустя 5 месяцев 3 дня)
  9. Стаж:
    11 дней
    Сообщений:
    1
    Пол:
    Не указан
     
    Nice
    01-Дек-2017 05:46 (спустя 4 дня)


Вы не можете начинать темы
Вы не можете отвечать на сообщения
Вы не можете редактировать свои сообщения
Вы не можете удалять свои сообщения
Вы не можете голосовать в опросах
Вы не можете прикреплять файлы к сообщениям
Вы не можете скачивать файлы