Топ Топиков за 24 часа
 
Luis Fonsi - Despacito ft. Daddy Yankee (2017) WEBRip 1080p | 60 fps Jennifer Lopez feat. Gente de Zona - Ni Tu Ni Yo (2017) WEBRip 1080p | 60 fps Iggy Azalea - Mo Bounce (2017) Full HD 1080p | 60 fps Katy Perry - Dark Horse (2014) Full HD 1080p | 60 fps DJ Khaled feat. Rihanna & Bryson Tiller - Wild Thoughts (2017) Full HD 1080p | 60 fps Inna - Gimme Gimme (2017) Full HD 1080p | 60 fps Loboda - Твои Глаза (2016) WEBRip 1080p | 60 fps Rihanna - Needed Me (2016) Full HD 1080p | 60 fps Spice Girls - Wannabe (1996) Full HD 1080p | 60 fps Jennifer Lopez - I'm Into You ft. Lil Wayne (2011) Full HD 1080p | 60 fps Serebro - Мама Люба давай (2011) Full HD 1080p | 60 fps Taylor Swift - Look What You Made Me Do (2017) WEBRip 1080p | 60 fps
  1. Стаж:
    3 года 1 месяц
    Сообщений:
    2084
    Пол:
    Мужской
     
    -Sarah Brightman - Done (2010) BDRemux 720p | 60 fps- Информация о Клипе
    Исполнитель: Sarah Brightman
    Название: Done
    Год выхода: 2010
    Продолжительность: 00:02:41-Файл
    Кодек: MPEG4/ISO/AVC/ H.264
    Формат: MKV
    Качество: BDRemux 720p
    Видео: 1280 x 720 (1.778) at 59.880 fps 31.0 Mbps/40.0 Mbps
    Аудио: DTS | 1 510 Kbps Кбит/сек | 48.0 KHz | 2 channels
    Описание:
    Клип Сары Брайтман эксклюзивно для рекламной компании техники 3D от Panasonic.
    В оригинальном качестве в формате 2D с фирменного диска - Panasonic 3D Demonstration Disc V1.2.

    MI

    Видео
    Идентификатор : 1
    Формат : AVC
    Формат/Информация : Advanced Video Codec
    Профиль формата : High@L4.1
    Параметр CABAC формата : Да
    Параметр ReFrames формата : 3 кадра
    Параметр GOP формата : M=3, N=60
    Режим смешивания : Header stripping
    Идентификатор кодека : V_MPEG4/ISO/AVC
    Продолжительность : 2 м. 42 с.
    Вид битрейта : Переменный
    Битрейт : 31,0 Мбит/сек
    Максимальный битрейт : 40,0 Мбит/сек
    Ширина : 1280 пикселей
    Высота : 720 пикселей
    Соотношение сторон : 16:9
    Режим частоты кадров : Постоянный
    Частота кадров : 59,880 кадров/сек
    Частота кадров в оригинале : 59,940 кадров/сек
    Цветовое пространство : YUV
    Субдискретизация насыщенности : 4:2:0
    Битовая глубина : 8 бит
    Тип развёртки : Прогрессивная
    Бит/(Пиксели*Кадры) : 0.561
    Размер потока : 598 Мбайт (93%)
    Default : Да
    Forced : Нет
    Аудио
    Идентификатор : 2
    Формат : DTS
    Формат/Информация : Digital Theater Systems
    Режим : 16
    Параметр Endianness формата : Big
    Режим смешивания : Header stripping
    Идентификатор кодека : A_DTS
    Продолжительность : 2 м. 42 с.
    Вид битрейта : Постоянный
    Битрейт : 1509 Кбит/сек
    Каналы : 6 каналов
    Расположение каналов : Front: L C R, Side: L R, LFE
    Частота : 48,0 КГц
    Битовая глубина : 16 бит
    Метод сжатия : С потерями
    Размер потока : 29,1 Мбайт (5%)
    Язык : English
    Default : Да
    Forced : Нет

    Релиз подготовлен 60 - fps

  2. ZHz

    Стаж:
    3 года
    Сообщений:
    188
    Пол:
    Мужской
     
    а не многоват битрейт для 720р?
    14-Мар-2015 23:20 (спустя 1 час 4 минуты)
  3. Стаж:
    3 года 1 месяц
    Сообщений:
    2084
    Пол:
    Мужской
     
    2146а не многоват битрейт для 720р?
    Какой есть . я же его не делал .
    15-Мар-2015 09:23 (спустя 10 часов)
  4. Стаж:
    2 года 2 месяца
    Сообщений:
    23
    Пол:
    Женский
     
    Клип просто супер!!! Качество великолепное!!! Спасибо!
    04-Сен-2015 11:59 (спустя 5 месяцев 20 дней)


Вы не можете начинать темы
Вы не можете отвечать на сообщения
Вы не можете редактировать свои сообщения
Вы не можете удалять свои сообщения
Вы не можете голосовать в опросах
Вы не можете прикреплять файлы к сообщениям
Вы не можете скачивать файлы