[Цитировать]
Kryl

-Sarah Brightman - Done (2010) BDRemux 720p | 60 fps- Информация о Клипе
Исполнитель: Sarah Brightman
Название: Done
Год выхода: 2010
Продолжительность: 00:02:41-Файл
Кодек: MPEG4/ISO/AVC/ H.264
Формат: MKV
Качество: BDRemux 720p
Видео: 1280 x 720 (1.778) at 59.880 fps 31.0 Mbps/40.0 Mbps
Аудио: DTS | 1 510 Kbps Кбит/сек | 48.0 KHz | 2 channels
Описание:
Клип Сары Брайтман эксклюзивно для рекламной компании техники 3D от Panasonic.
В оригинальном качестве в формате 2D с фирменного диска - Panasonic 3D Demonstration Disc V1.2.

MI

Видео
Идентификатор : 1
Формат : AVC
Формат/Информация : Advanced Video Codec
Профиль формата : High@L4.1
Параметр CABAC формата : Да
Параметр ReFrames формата : 3 кадра
Параметр GOP формата : M=3, N=60
Режим смешивания : Header stripping
Идентификатор кодека : V_MPEG4/ISO/AVC
Продолжительность : 2 м. 42 с.
Вид битрейта : Переменный
Битрейт : 31,0 Мбит/сек
Максимальный битрейт : 40,0 Мбит/сек
Ширина : 1280 пикселей
Высота : 720 пикселей
Соотношение сторон : 16:9
Режим частоты кадров : Постоянный
Частота кадров : 59,880 кадров/сек
Частота кадров в оригинале : 59,940 кадров/сек
Цветовое пространство : YUV
Субдискретизация насыщенности : 4:2:0
Битовая глубина : 8 бит
Тип развёртки : Прогрессивная
Бит/(Пиксели*Кадры) : 0.561
Размер потока : 598 Мбайт (93%)
Default : Да
Forced : Нет
Аудио
Идентификатор : 2
Формат : DTS
Формат/Информация : Digital Theater Systems
Режим : 16
Параметр Endianness формата : Big
Режим смешивания : Header stripping
Идентификатор кодека : A_DTS
Продолжительность : 2 м. 42 с.
Вид битрейта : Постоянный
Битрейт : 1509 Кбит/сек
Каналы : 6 каналов
Расположение каналов : Front: L C R, Side: L R, LFE
Частота : 48,0 КГц
Битовая глубина : 16 бит
Метод сжатия : С потерями
Размер потока : 29,1 Мбайт (5%)
Язык : English
Default : Да
Forced : Нет

Релиз подготовлен 60 - fps

[Цитировать]
ZHz

а не многоват битрейт для 720р?

[Цитировать]
Kryl

2146а не многоват битрейт для 720р?
Какой есть . я же его не делал .

[Цитировать]
SAKURA_2212

Клип просто супер!!! Качество великолепное!!! Спасибо!
 
Показать сообщения:    

Текущее время: 23-Сен 17:34

Часовой пояс: UTC + 3


Вы не можете начинать темы
Вы не можете отвечать на сообщения
Вы не можете редактировать свои сообщения
Вы не можете удалять свои сообщения
Вы не можете голосовать в опросах
Вы не можете прикреплять файлы к сообщениям
Вы не можете скачивать файлы