Суперсемейка 2 / Incredibles 2 (2018) BDRip 1080p | 60 fps Человек-паук: Через вселенные / Spider-Man: Into the Spider-Verse (2018) BDRip 1080p | 60 fps Тайна Коко / Coco (2017) BDRip 1080p | 60 fps Ральф против интернета / Ralph Breaks the Internet (2018) BDRip 1080p | 60 fps Тайная жизнь домашних животных / The Secret Life of Pets (2016) BDRip 1080p | 60 fps Монстры на каникулах 3: Море зовёт / Hotel Transylvania 3: Summer Vacation (2018) BDRip 720p | 60 fps Город героев / Big Hero 6 (2014) BDRip 1080p | 60 FPS Смолфут / Smallfoot (2018) BDRip 720p | 60 fps
  1. Gender:
    Unknown
    -Название: Самолеты
    Оригинальное название: Planes
    Год выпуска: 2013
    Страна: США
    Жанр: мультфильм, комедия, приключения, семейный
    Продолжительность: 01:31:48
    Перевод: Дубляж
    Субтитры: русские (Форсированные), русские (Полные), английские (Полные)-Режиссер: Клэй Холл / Klay Hall-В ролях: Дейн Кук (Dusty Crophopper, озвучка), Стейси Кич (Skipper, озвучка), Брэд Гэррет (Chug, озвучка), Тери Хэтчер (Dottie, озвучка), Джулия Луис-Дрейфус (Rochelle, озвучка), Приянка Чопра (Ishani, озвучка), Джон Клиз (Bulldog, озвучка), Седрик «Развлекатель» (Leadbottom, озвучка), Карлос Аласраки (El Chupacabra / дополнительные голоса, озвучка), Роджер Крэйг Смит (Ripslinger / дополнительные голоса, озвучка), Энтони Эдвардс (Echo, озвучка), Вэл Килмер (Bravo, озвучка)-Описание:
    Дасти Полейполе - скромный трудяга-самолет, работающий сельскохозяйственным распылителем на заштатном провинциальном аэродроме. Однако это не мешает ему мечтать о том, чтобы однажды принять участие в кругосветных гонках самых быстрых самолетов. Одна незадача - Дасти панически боится большой высоты. Поэтому, когда волею случая он все же попадает в число участников отборочного тура воздушных соревнований, ему приходится искать помощи у ветерана военно-морской авиации, отставного истребителя Шкипера. С помощью мудрого наставника Дасти сможет преодолеть свои слабости и бросить вызов надменному чемпиону Рипслингеру, а весь мир будет с замиранием сердца следить за гонкой в небесах!..-Рейтинг

    imdb.com: 5.70 (27 908)
    MPAA: PG - Рекомендуется присутствие родителей-Автор рипа:Tiberiumsun69
    -Качество: BDRip 1080p / 60 FPS
    Формат: MKV
    Видео кодек: AVC
    Аудио кодек:AC3
    Видео: AVC, 1920x1080 (16:9), 14000 kbps, 59,940 fps, 0,113 bpp
    Аудио №1: русский / AC3 / 5.1 / 48 kHz / 640 kbps / 16 bit |Дубляж|
    Аудио №2: английский / AC3 / 5.1 / 48 kHz / 640 kbps / 16 bit
    Навигация по главам: есть- -

    MI

    General
    Unique ID : 223792956636647224045796170182161716649 (0xA85CF4A5ABEB02C8BF64EBD07815D5A9)
    Complete name : A:1080p 60fpsСамолеты 1080p 60fps.mkv
    Format : Matroska
    Format version : Version 4 / Version 2
    File size : 9.79 GiB
    Duration : 1h 31mn
    Overall bit rate : 15.3 Mbps
    Movie name : R.G. HD-Films by Tiberiumsun69 60fps
    Encoded date : UTC 2014-12-07 05:31:34
    Writing application : mkvmerge v7.3.0 ('Nouages') 64bit built on Oct 22 2014 18:53:34
    Writing library : libebml v1.3.0 + libmatroska v1.4.1
    Attachment : Yes
    Video
    ID : 1
    Format : AVC
    Format/Info : Advanced Video Codec
    Format profile : High@L4.1
    Format settings, CABAC : Yes
    Format settings, ReFrames : 4 frames
    Codec ID : V_MPEG4/ISO/AVC
    Duration : 1h 31mn
    Bit rate : 14.0 Mbps
    Width : 1 920 pixels
    Height : 1 080 pixels
    Display aspect ratio : 16:9
    Frame rate : 59.940 fps
    Color space : YUV
    Chroma subsampling : 4:2:0
    Bit depth : 8 bits
    Scan type : Progressive
    Bits/(Pixel*Frame) : 0.113
    Stream size : 8.78 GiB (90%)
    Title : R.G. HD-Films by Tiberiumsun69 60fps
    Writing library : x264 core 142 r2491 24e4fed
    Encoding settings : cabac=1 / ref=4 / deblock=1:-1:-1 / analyse=0x3:0 / me=umh / subme=10 / psy=1 / psy_rd=1.00:0.00 / mixed_ref=1 / me_range=32 / chroma_me=0 / trellis=2 / 8x8dct=1 / cqm=0 / deadzone=21,11 / fast_pskip=1 / chroma_qp_offset=-2 / threads=12 / lookahead_threads=1 / sliced_threads=0 / nr=0 / decimate=1 / interlaced=0 / bluray_compat=0 / constrained_intra=0 / bframes=5 / b_pyramid=2 / b_adapt=2 / b_bias=0 / direct=1 / weightb=1 / open_gop=0 / weightp=2 / keyint=250 / keyint_min=59 / scenecut=40 / intra_refresh=0 / rc=2pass / mbtree=0 / bitrate=14000 / ratetol=1.0 / qcomp=0.80 / qpmin=0 / qpmax=69 / qpstep=4 / cplxblur=20.0 / qblur=0.5 / ip_ratio=1.40 / pb_ratio=1.30 / aq=1:1.00
    Language : English
    Default : Yes
    Forced : No
    Audio #1
    ID : 2
    Format : AC-3
    Format/Info : Audio Coding 3
    Mode extension : CM (complete main)
    Codec ID : A_AC3
    Duration : 1h 31mn
    Bit rate mode : Constant
    Bit rate : 640 Kbps
    Channel(s) : 6 channels
    Channel positions : Front: L C R, Side: L R, LFE
    Sampling rate : 48.0 KHz
    Bit depth : 16 bits
    Compression mode : Lossy
    Stream size : 420 MiB (4%)
    Title : Дубляж
    Language : Russian
    Default : Yes
    Forced : No
    Audio #2
    ID : 3
    Format : AC-3
    Format/Info : Audio Coding 3
    Mode extension : CM (complete main)
    Codec ID : A_AC3
    Duration : 1h 31mn
    Bit rate mode : Constant
    Bit rate : 640 Kbps
    Channel(s) : 6 channels
    Channel positions : Front: L C R, Side: L R, LFE
    Sampling rate : 48.0 KHz
    Bit depth : 16 bits
    Compression mode : Lossy
    Stream size : 420 MiB (4%)
    Title : Оригинал
    Language : English
    Default : No
    Forced : No
    Text #1
    ID : 4
    Format : UTF-8
    Codec ID : S_TEXT/UTF8
    Codec ID/Info : UTF-8 Plain Text
    Title : Форсированные
    Language : Russian
    Default : Yes
    Forced : No
    Text #2
    ID : 5
    Format : UTF-8
    Codec ID : S_TEXT/UTF8
    Codec ID/Info : UTF-8 Plain Text
    Title : Полные
    Language : Russian
    Default : No
    Forced : No
    Text #3
    ID : 6
    Format : UTF-8
    Codec ID : S_TEXT/UTF8
    Codec ID/Info : UTF-8 Plain Text
    Title : Полные
    Language : English
    Default : No
    Forced : No
    Menu
    00:00:00.000 : ru:1. Не просто кукурузник!
    00:04:54.990 : ru:2. Гонки - не для тебя
    00:07:36.234 : ru:3. Шкипер
    00:09:17.294 : ru:4. Гонка со временем
    00:14:51.085 : ru:5. Дасти в списке
    00:17:43.549 : ru:6. Тренировка со Шкипером
    00:25:11.872 : ru:7. Знакомство с участниками
    00:30:23.767 : ru:8. Гонка начинается
    00:36:41.186 : ru:9. Подмога
    00:40:50.518 : ru:10. Дасти выходит вперёд
    00:43:04.193 : ru:11. План действий
    00:48:20.801 : ru:12. Стальная лента
    00:51:50.802 : ru:13. Машина любви
    00:56:35.378 : ru:14. Над океаном
    01:00:19.144 : ru:15. Правда о Шкипере
    01:02:12.924 : ru:16. Падение Дасти
    01:07:18.312 : ru:17. Так поступают друзья
    01:10:26.041 : ru:18. Дасти снова в деле
    01:12:40.134 : ru:19. Последний этап
    01:16:39.915 : ru:20. В строю

    Скриншоты

    Просьба к переливающим на другие сайты, в оформлении указывайте пожалуйста авторство рипа - Tiberiumsun69
  2. Longevity:
    4 years 6 months
    Posts:
    31
    Gender:
    Male
    Самолеты это хорошо Ждем 2 часть Спасибо
    07-Dec-2014 16:53 (after 5 hours)


You cannot post new topics in this forum
You cannot reply to topics in this forum
You cannot edit your posts in this forum
You cannot delete your posts in this forum
You cannot vote in polls in this forum
You cannot attach files in this forum
You cannot download files in this forum