Гоголь. Страшная месть (2018) BDRip 1080p | 60 FPS Гоголь. Вий (2018) BDRip 1080p | 60 fps Движение вверх (2017) BDRip 1080p | 60 FPS Ночная смена (2018) BDRip 1080p | 60 FPS Собибор (2018) BDRip 1080p | 60 fps За гранью реальности (2018) BDRip 1080p | 60 FPS На игре 2. Новый уровень (2010) BDRip 1080p | 60 FPS Операция «Ы» и другие приключения Шурика (1965) BDRip-AVC | 60 fps
  1. Стаж:
    4 года 5 месяцев
    Сообщений:
    2411
    Пол:
    Мужской
    Салют-7 (2017) BDRip 720p | 60 fps Информация
    Название: Салют-7
    Год выхода: 2017
    Жанр: Драма, приключения, триллер
    Режиссер: Клим Шипенко
    Сценарий: Алексей Самолётов, Клим Шипенко, Алексей Чупов
    Продюсер: Антон Златопольский, Сергей Сельянов
    В ролях: Владимир Вдовиченков, Павел Деревянко, Александр Самойленко, Виталий Хаев, Оксана Фандера, Любовь Аксенова, Роман Перелыгин, Полина Руденко, Александра Серебрякова, Мария Миронова

    Сюжет:
    Космическая станция «Салют-7», находящаяся на орбите в беспилотном режиме, неожиданно перестает отвечать на сигналы центра управления полетом. Принято решение об отправке на орбиту спасательной экспедиции. Космический экипаж должен найти «мертвую» станцию и впервые в мире провести стыковку с 20-тонной глыбой неуправляемого железа. Космонавты понимают, что шансов вернуться на Землю у них немного. Но этот рискованный путь — единственно возможный. Они должны не только проникнуть на «Салют-7», но и оживить его. Смогут ли два человека предотвратить неминуемую катастрофу и спасти планету от падения станции? Спасательная экспедиция превращается в опасное испытание. На орбите разворачивается настоящий космический детектив. Фильм основан на реальных событиях: полет к станции «Салют-7» в 1985 году считается самым сложным полетом в истории космонавтики.

    Страна: Россия
    Продолжительность: 01:50:42

    Файл
    Кодек: H.264
    Формат: MKV
    Качество: BDRip 720p | 60 fps
    Видео: 1280 x 570 (2.246) | 59.940 fps | 12.0 Мбит/сек
    Аудио: AC3 | 5.1 | 48 kHz | 640 kbps | 16 bit

    MedifInfo

    Видео
    Идентификатор : 1
    Формат : AVC
    Формат/Информация : Advanced Video Codec
    Профиль формата : High@L4.1
    Параметр CABAC формата : Да
    Параметр ReFrames формата : 3 кадра
    Параметр GOP формата : M=3, N=59
    Идентификатор кодека : V_MPEG4/ISO/AVC
    Продолжительность : 1 ч. 50 м.
    Вид битрейта : Переменный
    Битрейт : 11,5 Мбит/сек
    Максимальный битрейт : 12,0 Мбит/сек
    Ширина : 1280 пикселей
    Высота : 570 пикселей
    Соотношение сторон : 2,25:1
    Режим частоты кадров : Постоянный
    Частота кадров : 59,880 кадров/сек
    Частота кадров в оригинале : 59,940 кадров/сек
    Стандарт вещания : PAL
    Цветовое пространство : YUV
    Субдискретизация насыщенности : 4:2:0
    Битовая глубина : 8 бит
    Тип развёртки : Прогрессивная
    Бит/(Пиксели*Кадры) : 0.264
    Размер потока : 8,90 Гбайт (93%)
    Заголовок : www.60-fps.org
    Язык : English
    Default : Да
    Forced : Нет
    Основные цвета : BT.601 NTSC
    Характеристики трансфера : BT.601
    Коэффициенты матрицы : BT.601
    colour_range : Limited
    Аудио
    Идентификатор : 2
    Формат : AC-3
    Формат/Информация : Audio Coding 3
    Расширение режима : CM (complete main)
    Параметр Endianness формата : Big
    Идентификатор кодека : A_AC3
    Продолжительность : 1 ч. 50 м.
    Вид битрейта : Постоянный
    Битрейт : 640 Кбит/сек
    Каналы : 6 каналов
    Расположение каналов : Front: L C R, Side: L R, LFE
    Частота : 48,0 КГц
    Битовая глубина : 16 бит
    Метод сжатия : С потерями
    Размер потока : 507 Мбайт (5%)
    Заголовок : Dolby Digital Audio, 5.1, 640 kbps
    Язык : Russian
    Default : Да
    Forced : Нет
    Меню
    00:00:00.000 : :Chapter 01
    00:14:40.629 : :Chapter 02
    00:26:47.814 : :Chapter 03
    00:41:13.721 : :Chapter 04
    00:54:44.322 : :Chapter 05
    01:09:28.914 : :Chapter 06
    01:22:12.093 : :Chapter 07
    01:37:55.578 : :Chapter 08

    Релиз подготовлен 60 - fps

  2. Стаж:
    1 год 6 месяцев
    Сообщений:
    11
    Пол:
    Не указан
    стоит качать или нет? кто смотрел уже?
    29-Май-2018 04:25 (спустя 5 месяцев 3 дня)
  3. Стаж:
    11 месяцев 17 дней
    Сообщений:
    8
    Пол:
    Не указан
    9837стоит качать или нет? кто смотрел уже?
    Очень даже стоит! Я в обычном BR смотрел и прикололся. Есть эффекты, которые в этом формате должны вообще "выстрелить", да и сюжетная линия норм, смотрится без отрыва))) Хороший Кино!

    _________________
    Подпись отключена за нарушение правил форума
    30-Май-2018 20:16 (спустя 1 день 15 часов)
  4. Стаж:
    11 месяцев 17 дней
    Сообщений:
    8
    Пол:
    Не указан
    Ха. Интересно откуда я скачивал 60, если не тута? У меня файл от 4 апреля))) тот же размер. Но в поиске его тут не нахожу.

    _________________
    Подпись отключена за нарушение правил форума
    30-Май-2018 20:21 (спустя 4 минуты)
  5. Стаж:
    4 года 5 месяцев
    Сообщений:
    2411
    Пол:
    Мужской
    9843Ха. Интересно откуда я скачивал 60, если не тута? У меня файл от 4 апреля))) тот же размер. Но в поиске его тут не нахожу.
    Этг мистика Смеюсь
    30-Май-2018 20:59 (спустя 37 минут)
  6. Стаж:
    2 года
    Сообщений:
    7
    Пол:
    Мужской
    В данный момент времени стою на раздаче данного релиза, а в этот же момент времени в СТАТИСТИКЕ РАЗДАЧИ данного же релиза указано:
    Полного источника не было: 3 дня
    Личеров: 1 [ 20 KB/s ]
    Что бы это значило? Удивляюсь
    13-Мар-2019 10:41 (спустя 9 месяцев 13 дней)
  7. Стаж:
    2 года 6 месяцев
    Сообщений:
    786
    Пол:
    Мужской
    10669В данный момент времени стою на раздаче данного релиза, а в этот же момент времени в СТАТИСТИКЕ РАЗДАЧИ данного же релиза указано:
    Полного источника не было: 3 дня
    Личеров: 1 [ 20 KB/s ]
    Что бы это значило? Удивляюсь
    РосКомНадзор блокирует сайт в РФ,у всех так,раздачи и загрузки не видны Умник
    У меня вообще больше 1500 раздач постоянно активны и их тоже не видно... !
    13-Мар-2019 12:14 (спустя 1 час 32 минуты)


Вы не можете начинать темы
Вы не можете отвечать на сообщения
Вы не можете редактировать свои сообщения
Вы не можете удалять свои сообщения
Вы не можете голосовать в опросах
Вы не можете прикреплять файлы к сообщениям
Вы не можете скачивать файлы