[Цитировать]
Kryl

«Cruise. Kidman. Kubrick»- Информация
Название: С широко закрытыми глазами
Оригинальное название: Eyes Wide Shut
Год выхода: 1999
Жанр: триллер, драма, детектив
Режиссер: Стэнли Кубрик
Сценарий: Стэнли Кубрик, Фредерик Рафаэль, Артур Шницлер
Продюсер: Стэнли Кубрик, Брайан В. Кук, Ян Харлан
В ролях: Том Круз, Николь Кидман, Мэдисон Эджинтон, Сидни Поллак, Лесли Лоу, Питер Бенсон, Тодд Филд, Майкл Доуен, Скай Дюмон, Луиз Дж. Тейлор, Стюарт Торндайк, Рэндолл Пол, Лиза Леоне, Мари Ричардсон, Томас Гибсон, Мариана Хьюитт, Дэн Роллман, Гэвин Парри и др.
--Сюжет:
Билл и Элис Харфорд — супружеская пара, производящая впечатление счастливых людей, живущих своей размеренной жизнью в полном достатке. Но за фасадом идеальных отношений скрываются потоки ревности, неудовлетворенности, тайных желаний и жажды чего-то запредельного.
Первый шаг делает Элис, рассказывая мужу о своих фантазиях. Терзаемый ревностью Билл идет дальше, выходя за рамки мыслей и слов. Он наяву отправляется в пьянящую сексуальную одиссею, ведомый соблазном и щекочущими нервы переживаниями. Если бы в начале пути он знал, что пределом его мечтаний станет возможность вернуться к своей привычной семейной жизни, он бы не поверил, ведь искушение вкусить запретный плод было слишком сильно…
- Страна: Великобритания, США
Продолжительность: 02:39:01

Файл
Кодек: MPEG4/ISO/AVC H.264
Формат: MKV
Качество: BDRip 720p | 60 fps
Видео: 1280 x 720 (1.778) | 60.000 fps | 11.0 Мбит/сек
Аудио 1: AC3 | 5.1 | 48 kHz | 448 kbps | 16 bit | Профессиональный (многоголосый, закадровый) |
Аудио 2: AC3 | 5.1 | 48 kHz | 448 kbps | 16 bit | Авторский одноголосый, закадровый, С. Визгунов |
Аудио 3: AC3 | 5.1 | 48 kHz | 448 kbps | 16 bit | ENG |
Субтитры: Русские, английские

MedifInfo

Видео
Идентификатор : 1
Формат : AVC
Формат/Информация : Advanced Video Codec
Профиль формата : High@L4.1
Параметр CABAC формата : Да
Параметр ReFrames формата : 3 кадра
Идентификатор кодека : V_MPEG4/ISO/AVC
Продолжительность : 2 ч. 39 м.
Вид битрейта : Переменный
Битрейт : 10,6 Мбит/сек
Максимальный битрейт : 11,0 Мбит/сек
Ширина : 1280 пикселей
Высота : 720 пикселей
Соотношение сторон : 16:9
Режим частоты кадров : Постоянный
Частота кадров : 59,880 кадров/сек
Частота кадров в оригинале : 59,940 кадров/сек
Стандарт вещания : PAL
Цветовое пространство : YUV
Субдискретизация насыщенности : 4:2:0
Битовая глубина : 8 бит
Тип развёртки : Прогрессивная
Бит/(Пиксели*Кадры) : 0.192
Размер потока : 11,8 Гбайт (87%)
Заголовок : www.60-fps.org
Язык : English
Default : Да
Forced : Нет
Основные цвета : BT.709
Характеристики трансфера : BT.709
Коэффициенты матрицы : BT.709
colour_range : Limited
Аудио #1
Идентификатор : 2
Формат : AC-3
Формат/Информация : Audio Coding 3
Расширение режима : CM (complete main)
Параметр Endianness формата : Big
Идентификатор кодека : A_AC3
Продолжительность : 2 ч. 39 м.
Вид битрейта : Постоянный
Битрейт : 448 Кбит/сек
Каналы : 6 каналов
Расположение каналов : Front: L C R, Side: L R, LFE
Частота : 48,0 КГц
Битовая глубина : 16 бит
Метод сжатия : С потерями
Задержка видео : 1 с. 84 мс.
Размер потока : 510 Мбайт (4%)
Заголовок : Профессиональный (многоголосый, закадровый)
Язык : Russian
Default : Да
Forced : Нет
Аудио #2
Идентификатор : 3
Формат : AC-3
Формат/Информация : Audio Coding 3
Расширение режима : CM (complete main)
Параметр Endianness формата : Big
Идентификатор кодека : A_AC3
Продолжительность : 2 ч. 39 м.
Вид битрейта : Постоянный
Битрейт : 448 Кбит/сек
Каналы : 6 каналов
Расположение каналов : Front: L C R, Side: L R, LFE
Частота : 48,0 КГц
Битовая глубина : 16 бит
Метод сжатия : С потерями
Размер потока : 510 Мбайт (4%)
Заголовок : С. Визгунов
Default : Нет
Forced : Нет
Аудио #3
Идентификатор : 4
Формат : AC-3
Формат/Информация : Audio Coding 3
Расширение режима : CM (complete main)
Параметр Endianness формата : Big
Идентификатор кодека : A_AC3
Продолжительность : 2 ч. 39 м.
Вид битрейта : Постоянный
Битрейт : 448 Кбит/сек
Каналы : 6 каналов
Расположение каналов : Front: L C R, Side: L R, LFE
Частота : 48,0 КГц
Битовая глубина : 16 бит
Метод сжатия : С потерями
Размер потока : 510 Мбайт (4%)
Заголовок : ENG
Язык : English
Default : Нет
Forced : Нет
Текст #1
Идентификатор : 5
Формат : UTF-8
Идентификатор кодека : S_TEXT/UTF8
Идентификатор кодека/Информация : UTF-8 Plain Text
Язык : Russian
Default : Нет
Forced : Нет
Текст #2
Идентификатор : 6
Формат : UTF-8
Идентификатор кодека : S_TEXT/UTF8
Идентификатор кодека/Информация : UTF-8 Plain Text
Язык : English
Default : Нет
Forced : Нет
Меню
00:00:00.000 : :Chapter 1
00:02:42.162 : :Chapter 2
00:06:26.052 : :Chapter 3
00:10:13.112 : :Chapter 4
00:12:53.105 : :Chapter 5
00:20:45.577 : :Chapter 6
00:31:25.216 : :Chapter 7
00:37:20.738 : :Chapter 8
00:41:46.837 : :Chapter 9
00:45:34.898 : :Chapter 10
00:46:59.983 : :Chapter 11
00:51:01.558 : :Chapter 12
00:54:49.619 : :Chapter 13
01:01:26.683 : :Chapter 14
01:05:15.912 : :Chapter 15
01:08:42.284 : :Chapter 16
01:12:05.321 : :Chapter 17
01:15:40.035 : :Chapter 18
01:19:25.761 : :Chapter 19
01:22:19.601 : :Chapter 20
01:24:12.213 : :Chapter 21
01:27:22.904 : :Chapter 22
01:30:01.396 : :Chapter 23
01:32:55.736 : :Chapter 24
01:38:32.740 : :Chapter 25
01:41:15.736 : :Chapter 26
01:44:52.452 : :Chapter 27
01:47:37.951 : :Chapter 28
01:52:02.716 : :Chapter 29
01:55:30.256 : :Chapter 30
02:01:31.951 : :Chapter 31
02:04:46.312 : :Chapter 32
02:10:30.489 : :Chapter 33
02:15:02.093 : :Chapter 34
02:19:02.500 : :Chapter 35
02:24:12.477 : :Chapter 36
02:27:47.859 : :Chapter 37
02:33:38.209 : :Chapter 38
02:39:01.240 : :Chapter 39

Релиз подготовлен 60 - fps

 
Показать сообщения:    

Текущее время: 09-Дек 22:19

Часовой пояс: UTC + 3


Вы не можете начинать темы
Вы не можете отвечать на сообщения
Вы не можете редактировать свои сообщения
Вы не можете удалять свои сообщения
Вы не можете голосовать в опросах
Вы не можете прикреплять файлы к сообщениям
Вы не можете скачивать файлы