Агент Ева / Ava (2020) BDRip 1080p | 60 fps Пятый элемент / The Fifth Element (1997) BDRip 1080p | 60 fps Властелин колец: Трилогия / The Lord of the Rings: Trilogy (2001-2003) BDRip-AVC | Extended Cut | 60 fps Форпост / The Outpost (2020) BDRip 1080p | 60 fps Охота / The Hunt (2020) BDRip 1080p | 60 fps Вивариум / Vivarium (2019) BDRip 720p | 60 fps Ультрафиолет / Ultraviolet (2006) BDRip 1080p | 60 fps Поезд смерти / D-Railed (2018) BDRip 1080p | 60 fps
  1. Longevity:
    6 years 4 months
    Posts:
    2414
    Gender:
    Male
    «You Better Watch Out»- Информация
    Название: Рождественские страшилки
    Оригинальное название: A Christmas Horror Story
    Год выхода: 2015
    Жанр: Ужасы
    Режиссер: Грант Харви, Стивен Хобан, Бретт Салливан
    Сценарий: Джеймс Ки, Сара Ларсен, Даг Тейлор
    Продюсер: Стивен Хобан, Марк Смит, Эмануэль «Мэнни» Данелон
    В ролях: Уильям Шэтнер, Джордж Бьюза, Роб Арчер, Зои Де Гранд Мезон, Алекс Озеров, Шэннон Кук-Чун, Эми Форсайт, Джефф Кларк, Мишель Нолден, Адриан Холмс, Олунике Аделийи, Алан С. Петерсон, Перси Хайнс Уайт, Корина Конли, Джулиан Ричингс, Дебра МакКейб, Джои Бек, Дамир Андрей, Джессика Клемент, Кен Холл
    --Сюжет:
    Старшеклассники расследуют загадочное убийство, произошедшее перед сезоном новогодних праздников, семейная пара замечает странное поведение младшего сына после совместной поездки в лес за ёлкой, а другую семью преследует рождественский демон Крампус, и всё это в то время, как на Северном полюсе Санта отбивается от зомби-эльфов.- Страна: Канада
    Продолжительность: 01:39:28

    Файл
    Кодек: MPEG4/ISO/AVC/H.264
    Формат: MKV
    Качество: BDRip 720p | 60 fps
    Видео: 1280 x 690 (1.855) | 59.940 fps | 10.0 Мбит/сек
    Аудио 1: AC3 | 5.1 | 48 kHz | 640 kbps | 16 bit | Авторский одноголосый - Юрий Немахов |
    Аудио 2: AC3 | 5.1 | 48 kHz | 640 kbps | 16 bit | ENG |

    MedifInfo

    Видео
    Идентификатор : 1
    Формат : AVC
    Формат/Информация : Advanced Video Codec
    Профиль формата : [email protected]
    Параметр CABAC формата : Да
    Параметр ReFrames формата : 3 кадра
    Параметр GOP формата : M=3, N=72
    Идентификатор кодека : V_MPEG4/ISO/AVC
    Продолжительность : 1 ч. 39 м.
    Вид битрейта : Переменный
    Битрейт : 9564 Кбит/сек
    Максимальный битрейт : 10000 Кбит/сек
    Ширина : 1280 пикселей
    Высота : 690 пикселей
    Соотношение сторон : 1,85:1
    Режим частоты кадров : Постоянный
    Частота кадров : 59,880 кадров/сек
    Частота кадров в оригинале : 59,940 кадров/сек
    Стандарт вещания : PAL
    Цветовое пространство : YUV
    Субдискретизация насыщенности : 4:2:0
    Битовая глубина : 8 бит
    Тип развёртки : Прогрессивная
    Бит/(Пиксели*Кадры) : 0.181
    Размер потока : 6,64 Гбайт (86%)
    Заголовок : www.60-fps.org
    Язык : English
    Default : Да
    Forced : Нет
    Основные цвета : BT.709
    Характеристики трансфера : BT.709
    Коэффициенты матрицы : BT.709
    colour_range : Limited
    Аудио #1
    Идентификатор : 2
    Формат : AC-3
    Формат/Информация : Audio Coding 3
    Расширение режима : CM (complete main)
    Параметр Endianness формата : Big
    Идентификатор кодека : A_AC3
    Продолжительность : 1 ч. 39 м.
    Вид битрейта : Постоянный
    Битрейт : 640 Кбит/сек
    Каналы : 6 каналов
    Расположение каналов : Front: L C R, Side: L R, LFE
    Частота : 48,0 КГц
    Битовая глубина : 16 бит
    Метод сжатия : С потерями
    Размер потока : 455 Мбайт (6%)
    Заголовок : Авторский одноголосый - Юрий Немахов
    Язык : Russian
    Default : Да
    Forced : Нет
    Аудио #2
    Идентификатор : 3
    Формат : AC-3
    Формат/Информация : Audio Coding 3
    Расширение режима : CM (complete main)
    Параметр Endianness формата : Big
    Идентификатор кодека : A_AC3
    Продолжительность : 1 ч. 39 м.
    Вид битрейта : Постоянный
    Битрейт : 640 Кбит/сек
    Каналы : 6 каналов
    Расположение каналов : Front: L C R, Side: L R, LFE
    Частота : 48,0 КГц
    Битовая глубина : 16 бит
    Метод сжатия : С потерями
    Размер потока : 455 Мбайт (6%)
    Заголовок : Eng
    Язык : English
    Default : Нет
    Forced : Нет
    Меню
    00:00:00.000 : en:Titles
    00:02:25.145 : en:Christmas Eve
    00:19:07.229 : en:Will?
    00:27:20.180 : en:Crucified
    01:05:27.924 : en:Changeling
    01:19:22.758 : en:A Child Is Born
    01:27:32.121 : en:Dangerous Dan
    01:35:09.120 : en:Credits

    Release was prepared by 60-fps.org



You cannot post new topics in this forum
You cannot reply to topics in this forum
You cannot edit your posts in this forum
You cannot delete your posts in this forum
You cannot vote in polls in this forum
You cannot attach files in this forum
You cannot download files in this forum