[Цитировать]
envy

Информация о фильме
Русское название: Робот по имени Чаппи
Оригинальное название: Chappie
Год выхода: 2015
Жанр: фантастика, боевик, триллер
Режиссер: Нил Бломкамп
Выпущено: США, Мексика, ЮАР
Продолжительность: 02:00:19
Перевод: Дублированный
В ролях: Шарлто Копли, Дев Патель, Ниндзя, Йоланди Фиссер, Хосе Пабло Кантилльо, Хью Джекман, Сигурни Уивер, Брэндон Оре, Джонни Селема, Андерсон Купер, Морис Карпеде, Джейсон Коуп, Кевин Отто, Крис Шилдс, Билл Мэрчент, Роберт Хоббс, Марк К. Куслу, Шерлдон Марема, Шахид Хаджи, Дэвид Давадосс-Сюжет фильма
Чаппи – высокоинтеллектуальный робот, созданный талантливейшим ученым. В отличие от тысяч аналогов, Чаппи может не только мыслить и развиваться, но и чувствовать, страдать, надеяться и мечтать. Одним словом, это – человек, только с большими интеллектуальными и физическими способностями и большим объемом памяти. Сейчас Чаппи – эдакий ребенок, который учится, шутит, играет, познает мир. Ученый, его создавший, относится к Чаппи, как к родному сыну и радуется каждому его достижению. Но однажды Чаппи похищают люди недобрые, прознавшие об уникальных способностях робота и решившие воспользоваться этим в своих подлых целях. Мафиозники обучают Чаппи на свой манер, и к большой печали, первоначально Чаппи верит людям, перенимая иной образ поведения и общения, нежели ему внушался прежде. Карусель событий разгоняется все быстрее: теперь военные получили информацию, что у мафии есть высокоинтеллектуальный робот и объявили охоту на него.-Файл
Качество: BDRip 720p (исходник Blu-ray Disc Remux)
Видео: 1280x534, 5746 Кбит/сек, 59.940 кадр/сек, AVC, x264, High@L4.1, 2.40:1, 0.140 Бит/[Пиксели*Кадры]
Аудио 1: AC-3, 640 Кбит/сек, 6 канала(ов), 48,0 КГц - Дублированный / Русский
Аудио 5: AC-3, 640 Кбит/сек, 6 канала(ов), 48,0 КГц - Оригинал / Английский
Субтитры: Русские | Полные, Английские | Полные
Форсированные субтитры: Русские, Английские
Чаптеры (Главы): Есть-
(динамичная сцена)
Автор Рипа: Сообщество: -

Скриншоты

MediaInfo

Format : Matroska
Format version : Version 2
File size : 6.02 GiB
Duration : 2h 0mn
Overall bit rate : 7 168 Kbps
Movie name : Робот по имени Чаппи.(2015).BDRip.720p.[envy].[60fps]
Encoded date : UTC 2015-06-08 02:16:06
Writing application : mkvmerge v5.8.0 ('No Sleep / Pillow') built on Sep 2 2012 15:37:04
Writing library : libebml v1.2.3 + libmatroska v1.3.0
Video
ID : 1
Format : AVC
Format/Info : Advanced Video Codec
Format profile : High@L4.1
Format settings, CABAC : Yes
Format settings, ReFrames : 9 frames
Codec ID : V_MPEG4/ISO/AVC
Duration : 2h 0mn
Bit rate : 5 746 Kbps
Width : 1 280 pixels
Height : 534 pixels
Display aspect ratio : 2.40:1
Frame rate mode : Constant
Frame rate : 59.880 fps
Original frame rate : 59.940 fps
Color space : YUV
Chroma subsampling : 4:2:0
Bit depth : 8 bits
Scan type : Progressive
Bits/(Pixel*Frame) : 0.140
Stream size : 4.83 GiB (80%)
Title : Робот по имени Чаппи.(2015).BDRip.720p.[envy].[60fps]
Writing library : x264 core 130 r2273 b3065e6
Encoding settings : cabac=1 / ref=9 / deblock=1:0:0 / analyse=0x3:0x113 / me=umh / subme=11 / psy=1 / psy_rd=1.00:0.00 / mixed_ref=1 / me_range=24 / chroma_me=1 / trellis=2 / 8x8dct=1 / cqm=0 / deadzone=21,11 / fast_pskip=0 / chroma_qp_offset=-2 / threads=12 / lookahead_threads=2 / sliced_threads=0 / nr=0 / decimate=1 / interlaced=0 / bluray_compat=0 / constrained_intra=0 / bframes=7 / b_pyramid=2 / b_adapt=2 / b_bias=0 / direct=3 / weightb=1 / open_gop=0 / weightp=2 / keyint=250 / keyint_min=25 / scenecut=40 / intra_refresh=0 / rc=crf / mbtree=0 / crf=17.0 / qcomp=0.60 / qpmin=0 / qpmax=69 / qpstep=4 / ip_ratio=1.40 / pb_ratio=1.30 / aq=1:0.70
Language : English
Default : Yes
Forced : No
Audio #1
ID : 2
Format : AC-3
Format/Info : Audio Coding 3
Mode extension : CM (complete main)
Format settings, Endianness : Big
Codec ID : A_AC3
Duration : 2h 0mn
Bit rate mode : Constant
Bit rate : 640 Kbps
Channel(s) : 6 channels
Channel positions : Front: L C R, Side: L R, LFE
Sampling rate : 48.0 KHz
Bit depth : 16 bits
Compression mode : Lossy
Stream size : 551 MiB (9%)
Title : Dub
Language : Russian
Default : Yes
Forced : No
Audio #2
ID : 3
Format : AC-3
Format/Info : Audio Coding 3
Mode extension : CM (complete main)
Format settings, Endianness : Big
Codec ID : A_AC3
Duration : 2h 0mn
Bit rate mode : Constant
Bit rate : 640 Kbps
Channel(s) : 6 channels
Channel positions : Front: L C R, Side: L R, LFE
Sampling rate : 48.0 KHz
Bit depth : 16 bits
Compression mode : Lossy
Stream size : 551 MiB (9%)
Title : Eng
Language : English
Default : No
Forced : No
Text #1
ID : 4
Format : UTF-8
Codec ID : S_TEXT/UTF8
Codec ID/Info : UTF-8 Plain Text
Title : Rus forced
Language : Russian
Default : Yes
Forced : Yes
Text #2
ID : 5
Format : UTF-8
Codec ID : S_TEXT/UTF8
Codec ID/Info : UTF-8 Plain Text
Title : Rus full
Language : Russian
Default : No
Forced : No
Text #3
ID : 6
Format : UTF-8
Codec ID : S_TEXT/UTF8
Codec ID/Info : UTF-8 Plain Text
Title : Eng forced
Language : English
Default : No
Forced : No
Text #4
ID : 7
Format : UTF-8
Codec ID : S_TEXT/UTF8
Codec ID/Info : UTF-8 Plain Text
Title : Eng full
Language : English
Default : No
Forced : No
Menu
00:00:00.000 : en:(01)00:00:00:000
00:03:37.008 : en:(02)00:03:37:008
00:09:55.260 : en:(03)00:09:55:260
00:13:50.495 : en:(04)00:13:50:495
00:21:53.644 : en:(05)00:21:53:644
00:31:17.541 : en:(06)00:31:17:541
00:37:19.320 : en:(07)00:37:19:320
00:46:58.731 : en:(08)00:46:58:731
00:54:36.690 : en:(09)00:54:36:690
01:06:12.927 : en:(10)01:06:12:927
01:09:57.649 : en:(11)01:09:57:649
01:16:48.395 : en:(12)01:16:48:395
01:24:59.551 : en:(13)01:24:59:551
01:31:35.198 : en:(14)01:31:35:198
01:42:36.942 : en:(15)01:42:36:942
01:50:03.595 : en:(16)01:50:03:595
-За звуковые дорожки, субтитры, главы, большое спасибо potroks | HELLYWOOD

[Цитировать]
envy

Теперь норм скриншотов? ))))

[Цитировать]
ZHz

так и думал, стоит персонажу немного дернуться, как включается смешивание

[Цитировать]
envy

ZHz, mode 3
экспериментальный)))

[Цитировать]
envy

Забыл убрать ссылку с банера...
Уберите.

[Цитировать]
ZHz

убрал

[Цитировать]
Tranch

На одном скрине слишком большой спойлер))

[Цитировать]
ZHz

2927На одном скрине слишком большой спойлер))
Последний?

[Цитировать]
envy

2928Последний?
Сектор и сайракс, из мортал комбат!
)))))))

[Цитировать]
Tranch

ZHz,
Агась))
 
Показать сообщения:    

Текущее время: 19-Окт 19:14

Часовой пояс: UTC + 3


Вы не можете начинать темы
Вы не можете отвечать на сообщения
Вы не можете редактировать свои сообщения
Вы не можете удалять свои сообщения
Вы не можете голосовать в опросах
Вы не можете прикреплять файлы к сообщениям
Вы не можете скачивать файлы