[Цитировать]
izomsk

Робот по имени Чаппи / Chappie
Год выпуска: 2015 г.
Жанр: Фантастика, Боевик, Триллер
Страна: Мексика, США, Columbia Pictures, Alpha Core, Genre Films
Режиссер: Нил Бломкамп
Продолжительность: 02:00:20
Перевод: Профессиональный (дублированный)
Перевод 2: Профессиональный (дублированный)
В ролях: Шарлто Копли, Дев Патель, Ниндзя, Йоланди Фиссер, Хосе Пабло Кантилльо, Хью Джекман, Сигурни Уивер, Брэндон Оре, Джонни Селема, Андерсон Купер
Описание: Чаппи — вундеркинд. Как и любой другой ребенок, он попадает под влияние своего окружения, и только его сердце и душа помогут ему найти свой путь. Но есть одна вещь, которая делает Чаппи непохожим на всех остальных: он — первый робот, способный чувствовать и думать. Формат видео: MKV
Качество видео: BDRip 1080p | 60fps
Видео кодек: H.264
Аудио кодек: AC3
Видео: 1920x800 at 59.94 fps, MPEG-4 AVC, ~15.0 Mbps
Аудио: AC3 5.1 @ 640 kbps - Русский DUB, Blu-ray CEE
Аудио 2: AC3 5.1 @ 640 kbps - Украинский DUB, Blu-ray CEE
Аудио 3: DTS 5.1 @ 1536 kbps - Английский
Cубтитры: Russian (Forced, iTunes), Russian (iTunes), Ukrainian (iTunes), English (iTunes)

Отчёт MediaInfo

General
Unique ID : 252882791599252539376067514932613532408 (0xBE3F743E55355B44AEF2375FE136CAF8)
Complete name : D:\Users\Aleks\Videos\Чаппи BDRip 1080p 60fps\Chappie.2015.BDRip.1080p.60fps.mkv
Format : Matroska
Format version : Version 2
File size : 15.0 GiB
Duration : 2h 0mn
Overall bit rate : 17.8 Mbps
Movie name : Chappie (2015) - Release for HDCLUB
Encoded date : UTC 2015-06-10 11:40:53
Writing application : mkvmerge v3.4.0 ('Rapunzel') сборка от May 18 2010 22:32:11
Writing library : libebml v0.8.0 + libmatroska v0.9.0
Video
ID : 1
Format : AVC
Format/Info : Advanced Video Codec
Format profile : High@L4.1
Format settings, CABAC : Yes
Format settings, ReFrames : 4 frames
Codec ID : V_MPEG4/ISO/AVC
Duration : 2h 0mn
Bit rate : 15.0 Mbps
Width : 1 920 pixels
Height : 800 pixels
Display aspect ratio : 2.40:1
Frame rate mode : Constant
Frame rate : 59.880 fps
Original frame rate : 59.940 fps
Color space : YUV
Chroma subsampling : 4:2:0
Bit depth : 8 bits
Scan type : Progressive
Bits/(Pixel*Frame) : 0.163
Stream size : 12.3 GiB (82%)
Title : Rip by izomsk
Writing library : x264 core 120 r2120kMod 0c7dab9
Encoding settings : cabac=1 / ref=4 / deblock=1:0:0 / analyse=0x3:0x133 / me=umh / subme=7 / psy=1 / fade_compensate=0.00 / psy_rd=1.00:0.00 / mixed_ref=1 / me_range=32 / chroma_me=1 / trellis=1 / 8x8dct=1 / cqm=0 / deadzone=21,11 / fast_pskip=1 / chroma_qp_offset=-4 / threads=12 / sliced_threads=1 / slices=12 / nr=1 / decimate=1 / interlaced=0 / bluray_compat=0 / constrained_intra=0 / bframes=5 / b_pyramid=2 / b_adapt=2 / b_bias=0 / direct=1 / weightb=1 / open_gop=0 / weightp=2 / keyint=599 / keyint_min=58 / scenecut=40 / intra_refresh=0 / rc=2pass / mbtree=0 / bitrate=15000 / ratetol=1.0 / qcomp=0.60 / qpmin=0 / qpmax=51 / qpstep=4 / cplxblur=20.0 / qblur=0.5 / ip_ratio=1.40 / pb_ratio=1.30 / aq=1:1.00
Language : English
Default : Yes
Forced : No
Audio #1
ID : 2
Format : AC-3
Format/Info : Audio Coding 3
Mode extension : CM (complete main)
Format settings, Endianness : Big
Codec ID : A_AC3
Duration : 2h 0mn
Bit rate mode : Constant
Bit rate : 640 Kbps
Channel(s) : 6 channels
Channel positions : Front: L C R, Side: L R, LFE
Sampling rate : 48.0 KHz
Bit depth : 16 bits
Compression mode : Lossy
Delay relative to video : 120ms
Stream size : 551 MiB (4%)
Title : AC3 5.1 @ 640 kbps - DUB, Blu-ray CEE
Language : Russian
Default : Yes
Forced : No
Audio #2
ID : 3
Format : AC-3
Format/Info : Audio Coding 3
Mode extension : CM (complete main)
Format settings, Endianness : Big
Codec ID : A_AC3
Duration : 2h 0mn
Bit rate mode : Constant
Bit rate : 640 Kbps
Channel(s) : 6 channels
Channel positions : Front: L C R, Side: L R, LFE
Sampling rate : 48.0 KHz
Bit depth : 16 bits
Compression mode : Lossy
Delay relative to video : 120ms
Stream size : 551 MiB (4%)
Title : AC3 5.1 @ 640 kbps - DUB, Blu-ray CEE
Language : Ukrainian
Default : No
Forced : No
Audio #3
ID : 4
Format : DTS
Format/Info : Digital Theater Systems
Mode : 16
Format settings, Endianness : Big
Codec ID : A_DTS
Duration : 2h 0mn
Bit rate mode : Constant
Bit rate : 1 509 Kbps
Channel(s) : 6 channels
Channel positions : Front: L C R, Side: L R, LFE
Sampling rate : 48.0 KHz
Bit depth : 24 bits
Compression mode : Lossy
Delay relative to video : 131ms
Stream size : 1.27 GiB (8%)
Title : DTS 5.1 @ 1536 kbps
Language : English
Default : No
Forced : No
Text #1
ID : 5
Format : UTF-8
Codec ID : S_TEXT/UTF8
Codec ID/Info : UTF-8 Plain Text
Title : Forced, iTunes
Language : Russian
Default : Yes
Forced : No
Text #2
ID : 6
Format : UTF-8
Codec ID : S_TEXT/UTF8
Codec ID/Info : UTF-8 Plain Text
Title : iTunes
Language : Russian
Default : No
Forced : No
Text #3
ID : 7
Format : UTF-8
Codec ID : S_TEXT/UTF8
Codec ID/Info : UTF-8 Plain Text
Title : iTunes
Language : Ukrainian
Default : No
Forced : No
Text #4
ID : 8
Format : UTF-8
Codec ID : S_TEXT/UTF8
Codec ID/Info : UTF-8 Plain Text
Title : iTunes
Language : English
Default : No
Forced : No
Menu
00:00:00.000 : en:00:00:00.000
00:03:37.008 : en:00:03:37.008
00:09:55.261 : en:00:09:55.261
00:13:50.496 : en:00:13:50.496
00:21:53.646 : en:00:21:53.646
00:31:17.125 : en:00:31:17.125
00:37:19.320 : en:00:37:19.320
00:46:58.733 : en:00:46:58.733
00:54:36.690 : en:00:54:36.690
01:06:12.927 : en:01:06:12.927
01:09:57.652 : en:01:09:57.652
01:16:48.395 : en:01:16:48.395
01:24:59.553 : en:01:24:59.553
01:31:35.198 : en:01:31:35.198
01:42:36.942 : en:01:42:36.942
01:50:03.597 : en:01:50:03.597

[Цитировать]
izomsk

Приятного просмотра!

[Цитировать]
envy

Класс!!! ))
Сколько же времени потратил?

[Цитировать]
Kryl

опять этот говнохостинг изображений

[Цитировать]
izomsk

Машинного времени - сутки потратил.
ПО изохостингам: какой порекомендуете на будущее?

[Цитировать]
envy

izomsk, Я посоветую http://firepic.org/
Мне очень нравится.
За все мое время пользованием этим хостингом, ни разу не удалали изображений.
Но иногда бывает что не получается загрузить изображения)))

[Цитировать]
BOT2

Посмотрел фильм, картинка в целом не плохая! А сам фильм меня прикольнул

[Цитировать]
rembo1410

спасибо!посмотрю
 
Показать сообщения:    

Текущее время: 07-Дек 19:23

Часовой пояс: UTC + 3


Вы не можете начинать темы
Вы не можете отвечать на сообщения
Вы не можете редактировать свои сообщения
Вы не можете удалять свои сообщения
Вы не можете голосовать в опросах
Вы не можете прикреплять файлы к сообщениям
Вы не можете скачивать файлы