Властелин колец: Трилогия / The Lord of the Rings: Trilogy (2001-2003) BDRip-AVC | Extended Cut | 60 fps К звёздам / Ad Astra (2019) BDRip 1080p | 60 fps Принц Персии: Пески времени / Prince of Persia: The Sands of Time (2010) BDRip 1080p | 60 fps 21 мост / 21 Bridges (2019) BDRip 1080p | 60 fps Достать ножи / Knives Out (2019) BDRip 1080p | 60 fps Паразиты / Gisaengchung (2019) BDRip 1080p | 60 fps Удивительное путешествие доктора Дулиттла / Dolittle (2020) BDRip 1080p | 60 fps День, когда Земля остановилась / The Day the Earth Stood Still (2008) BDRip 1080p | 60 fps
  1. Longevity:
    4 years
    Posts:
    1509
    Gender:
    Male
    Фильм «У зла нет шансов» Фильм- Информация
    Название: РобоКоп
    Оригинальное название: RoboCop
    Год выхода: 2014
    Жанр: фантастика, боевик, криминал
    Режиссер: Жозе Падилья
    Сценарий: Джошуа Зитумер, Эдвард Ноймайер, Майкл Майнер
    Продюсер: Марк Абрахам, Эрик Ньюман, Гари Барбер /color]
    В ролях: Юэль Киннаман,Гари Олдман,Майкл Китон,Эбби Корниш,Джеки Эрл Хейли,Сэмюэл Л. Джексон,Майкл Кеннет Уильямс,Дженнифер Или,Марианн Жан-Батист,Эйми Гарсиа
    --Сюжет:
    2028 год. Международный конгломерат ОмниКорп лидирует в производстве робототехники. Благодаря разработкам компании Америка успешно побеждает в войнах по всему миру. Но теперь пришло время применить технологию на американской земле. Алекс Мерфи — любящий муж, отец и отличный полицейский, оберегающий порядок в Детройте, получает на службе смертельные ранения. Специалисты ОмниКорпа, используя новейшие разработки, сохраняют ему жизнь. Алекс возвращается на службу в родной город не только с новыми сверхспособностями, но и с проблемами, с которыми не сталкивался ни один живой человек.-- Страна: США
    Продолжительность: 01:57:29

    Файл
    Кодек: MPEG4/ISO/AVC H.264
    Формат: MKV
    Качество: BDRip 1080p | 60 fps
    Видео: 1920 x 800 (2.400) | 59.940 fps | 7315 Кбит/сек
    Аудио 1: AC3 | 5.1 | 48 kHz | 640 kbps | 16 bit | Дубляж
    Аудио 2: AC3 | 5.1 | 48 kHz | 640 kbps | 16 bit | Оригинал |
    Субтитры: Russian,English

    MedifInfo

    Видео
    Идентификатор : 1
    Формат : AVC
    Формат/Информация : Advanced Video Codec
    Профиль формата : High@L4.1
    Параметр CABAC формата : Да
    Параметр ReFrames формата : 4 кадра
    Идентификатор кодека : V_MPEG4/ISO/AVC
    Продолжительность : 1 ч. 57 м.
    Битрейт : 7315 Кбит/сек
    Ширина : 1920 пикселей
    Высота : 800 пикселей
    Соотношение сторон : 2,40:1
    Режим частоты кадров : Постоянный
    Частота кадров : 59,940 (59940/1000) кадров/сек
    Цветовое пространство : YUV
    Субдискретизация насыщенности : 4:2:0
    Битовая глубина : 8 бит
    Тип развёртки : Прогрессивная
    Бит/(Пиксели*Кадры) : 0.079
    Размер потока : 6,00 Гбайт (85%)
    Библиотека кодирования : x264 core 130 r2273 b3065e6
    Настройки программы : cabac=1 / ref=4 / deblock=1:-1:-1 / analyse=0x3:0 / me=umh / subme=9 / psy=1 / psy_rd=1.00:0.10 / mixed_ref=1 / me_range=24 / chroma_me=0 / trellis=1 / 8x8dct=1 / cqm=0 / deadzone=21,11 / fast_pskip=0 / chroma_qp_offset=-3 / threads=12 / lookahead_threads=1 / sliced_threads=0 / nr=0 / decimate=0 / interlaced=0 / bluray_compat=0 / constrained_intra=0 / bframes=5 / b_pyramid=2 / b_adapt=2 / b_bias=0 / direct=1 / weightb=1 / open_gop=0 / weightp=2 / keyint=599 / keyint_min=59 / scenecut=40 / intra_refresh=0 / rc=crf / mbtree=0 / crf=18.0 / qcomp=0.60 / qpmin=0 / qpmax=69 / qpstep=4 / ip_ratio=1.40 / pb_ratio=1.30 / aq=1:0.90
    Язык : English
    Default : Да
    Forced : Нет
    Аудио #1
    Идентификатор : 2
    Формат : AC-3
    Формат/Информация : Audio Coding 3
    Расширение режима : CM (complete main)
    Параметр Endianness формата : Big
    Идентификатор кодека : A_AC3
    Продолжительность : 1 ч. 57 м.
    Вид битрейта : Постоянный
    Битрейт : 640 Кбит/сек
    Каналы : 6 каналов
    Расположение каналов : Front: L C R, Side: L R, LFE
    Частота : 48,0 КГц
    Частота кадров : 31,250 кадров/сек (1536 spf)
    Метод сжатия : С потерями
    Размер потока : 538 Мбайт (7%)
    Заголовок : Dub
    Язык : Russian
    Default : Да
    Forced : Нет
    Аудио #2
    Идентификатор : 7
    Формат : AC-3
    Формат/Информация : Audio Coding 3
    Расширение режима : CM (complete main)
    Параметр Endianness формата : Big
    Идентификатор кодека : A_AC3
    Продолжительность : 1 ч. 57 м.
    Вид битрейта : Постоянный
    Битрейт : 640 Кбит/сек
    Каналы : 6 каналов
    Расположение каналов : Front: L C R, Side: L R, LFE
    Частота : 48,0 КГц
    Частота кадров : 31,250 кадров/сек (1536 spf)
    Метод сжатия : С потерями
    Размер потока : 538 Мбайт (7%)
    Заголовок : Original
    Язык : English
    Default : Нет
    Forced : Нет
    Текст #1
    Идентификатор : 3
    Формат : UTF-8
    Идентификатор кодека : S_TEXT/UTF8
    Идентификатор кодека/Информация : UTF-8 Plain Text
    Продолжительность : 1 ч. 55 м.
    Битрейт : 4 бит/сек
    Count of elements : 85
    Размер потока : 3,50 Кбайт (0%)
    Заголовок : Forced
    Язык : Russian
    Default : Да
    Forced : Нет
    Текст #2
    Идентификатор : 4
    Формат : UTF-8
    Идентификатор кодека : S_TEXT/UTF8
    Идентификатор кодека/Информация : UTF-8 Plain Text
    Продолжительность : 1 ч. 56 м.
    Битрейт : 90 бит/сек
    Count of elements : 1648
    Размер потока : 76,8 Кбайт (0%)
    Заголовок : Full
    Язык : Russian
    Default : Нет
    Forced : Нет
    Текст #3
    Идентификатор : 5
    Формат : UTF-8
    Идентификатор кодека : S_TEXT/UTF8
    Идентификатор кодека/Информация : UTF-8 Plain Text
    Продолжительность : 2 м. 7 с.
    Битрейт : 44 бит/сек
    Count of elements : 30
    Размер потока : 701 байт (0%)
    Заголовок : Forced
    Язык : English
    Default : Нет
    Forced : Нет
    Текст #4
    Идентификатор : 6
    Формат : UTF-8
    Идентификатор кодека : S_TEXT/UTF8
    Идентификатор кодека/Информация : UTF-8 Plain Text
    Продолжительность : 1 ч. 50 м.
    Битрейт : 64 бит/сек
    Count of elements : 1570
    Размер потока : 52,0 Кбайт (0%)
    Заголовок : Full
    Язык : English
    Default : Нет
    Forced : Нет
    Меню
    00:00:00.000 : en:Chapter 1
    00:04:33.898 : en:Chapter 2
    00:08:51.739 : en:Chapter 3
    00:14:33.914 : en:Chapter 4
    00:17:01.603 : en:Chapter 5
    00:19:27.040 : en:Chapter 6
    00:21:52.936 : en:Chapter 7
    00:26:13.571 : en:Chapter 8
    00:30:47.971 : en:Chapter 9
    00:32:48.675 : en:Chapter 10
    00:36:12.378 : en:Chapter 11
    00:39:06.969 : en:Chapter 12
    00:43:03.497 : en:Chapter 13
    00:45:40.654 : en:Chapter 14
    00:52:10.377 : en:Chapter 15
    00:57:21.187 : en:Chapter 16
    01:01:23.888 : en:Chapter 17
    01:02:59.901 : en:Chapter 18
    01:06:05.920 : en:Chapter 19
    01:10:30.476 : en:Chapter 20
    01:13:26.527 : en:Chapter 21
    01:18:24.866 : en:Chapter 22
    01:21:56.202 : en:Chapter 23
    01:26:04.993 : en:Chapter 24
    01:28:06.906 : en:Chapter 25
    01:32:02.975 : en:Chapter 26
    01:35:52.955 : en:Chapter 27
    01:38:30.654 : en:Chapter 28
    01:41:30.751 : en:Chapter 29
    01:43:44.635 : en:Chapter 30
    01:46:41.561 : en:Chapter 31
    01:50:12.689 : en:Chapter 32
  2. Longevity:
    4 years
    Posts:
    1509
    Gender:
    Male
    Если кого то заинтересует,то могу залить все три фильма старого выпуска... ! Крутой
    14-Nov-2016 21:30 (after 8 minutes)
  3. Longevity:
    5 years 1 month
    Posts:
    149
    Gender:
    Male
    могу залить все три фильма старого выпуска... !
    Конечно залей, будем очень благодарны, как и за этот фильм! Улыбаюсь
    15-Nov-2016 08:25 (after 10 hours)
  4. Longevity:
    3 years 3 months
    Posts:
    1
    Gender:
    Unknown
    Присоединяюсь Фильм
    05-Jun-2017 21:48 (after 6 months 20 days)
  5. Longevity:
    4 years
    Posts:
    1509
    Gender:
    Male
    ENIGMA, Киноман, Плачу недавно жёсткий диск в NAS крякнулся,а руки всё так и не доходили до залива остальных частей,так что позже наверное сделаю... Подмигиваю
    05-Jun-2017 22:18 (after 29 minutes)


You cannot post new topics in this forum
You cannot reply to topics in this forum
You cannot edit your posts in this forum
You cannot delete your posts in this forum
You cannot vote in polls in this forum
You cannot attach files in this forum
You cannot download files in this forum