Холодное сердце 2 / Frozen II (2019) BDRip 1080p | 60 fps Камуфляж и шпионаж / Spies in Disguise (2019) BDRip 1080p | 60 fps Семейка Аддамс / The Addams Family (2019) BDRip 1080p | 60 fps Человек-паук: Через вселенные / Spider-Man: Into the Spider-Verse (2018) BDRip 1080p | 60 fps Вперёд / Onward (2019) BDRip 1080p | 60 fps Акира / Akira (1988) BDRip 1080p | 60 fps Холодное сердце / Frozen (2013) BDRip-AVC | 60 fps ВАЛЛ·И / WALL-E (2008) BDRip-AVC | 60 fps
  1. Longevity:
    5 years 11 months
    Posts:
    2419
    Gender:
    Male
    «Однажды на берег очень даже обитаемого острова...»- Информация
    Название: Робинзон Крузо: Очень обитаемый остров
    Оригинальное название: Robinson Crusoe
    Год выхода: 2016
    Жанр: Кмультфильм, комедия, приключения
    Режиссер: Винсент Кестелут, Бен Стассен
    Продюсер: Джина Галло, Мими Мэйнард, Домоник Парис
    Персонажей озвучивали: Рон Аллен, Джордж Бэббит, Лайла Берзиньш, Илька Бессин, Джои Камен, Джефф Дусетте, Сэнди Фокс
    --Сюжет:
    Все знают историю о Робинзоне Крузо, попавшем на необитаемый остров. Однако, как же можно назвать его необитаемым, если он населен разнообразными веселыми животными и птицами? Они очень удивились, впервые встретив это странное существо, и даже приняли его за морское чудовище. Попугаю по кличке Вторник и его друзьям — хамелеону, тапиру и другим обитателям острова предстоит поближе познакомиться с незнакомым зверем «человеком» и вместе с ним пережить массу опасных и веселых приключений.- Страна: Франция, Бельгия
    Продолжительность: 01:30:27

    Файл
    Кодек: MPEG4/ISO/AVC H.264
    Формат: MKV
    Качество: BDRip 720p | 60 fps
    Видео: 1280 x 538 (2.379) | 59.940 fps | 6.0 Мбит/сек
    Аудио 1: AC3 | 5.1 | 48 kHz | 384 kbps | 16 bit | Дубляж iTunes |
    Аудио 2: AC3 | 5.1 | 48 kHz | 384 kbps | 16 bit | GER |

    MedifInfo

    Видео
    Идентификатор : 1
    Формат : AVC
    Формат/Информация : Advanced Video Codec
    Профиль формата : High@L4.1
    Параметр CABAC формата : Да
    Параметр ReFrames формата : 5 кадров
    Идентификатор кодека : V_MPEG4/ISO/AVC
    Продолжительность : 1 ч. 30 м.
    Битрейт : 5999 Кбит/сек
    Ширина : 1280 пикселей
    Высота : 538 пикселей
    Соотношение сторон : 2,40:1
    Режим частоты кадров : Постоянный
    Частота кадров : 59,880 кадров/сек
    Частота кадров в оригинале : 59,940 кадров/сек
    Цветовое пространство : YUV
    Субдискретизация насыщенности : 4:2:0
    Битовая глубина : 8 бит
    Тип развёртки : Прогрессивная
    Бит/(Пиксели*Кадры) : 0.145
    Размер потока : 3,71 Гбайт (87%)
    Заголовок : www.60-fps.org
    Библиотека кодирования : x264 core 148 r2638 7599210
    Настройки программы : cabac=1 / ref=5 / deblock=1:-1:-1 / analyse=0x3:0x113 / me=umh / subme=8 / psy=1 / psy_rd=1.00:0.25 / mixed_ref=1 / me_range=32 / chroma_me=1 / trellis=1 / 8x8dct=1 / cqm=0 / deadzone=6,6 / fast_pskip=1 / chroma_qp_offset=-4 / threads=12 / lookahead_threads=2 / sliced_threads=0 / nr=0 / decimate=0 / interlaced=0 / bluray_compat=0 / constrained_intra=0 / bframes=3 / b_pyramid=2 / b_adapt=2 / b_bias=0 / direct=3 / weightb=1 / open_gop=0 / weightp=2 / keyint=599 / keyint_min=59 / scenecut=40 / intra_refresh=0 / rc_lookahead=50 / rc=2pass / mbtree=1 / bitrate=5999 / ratetol=1.0 / qcomp=0.80 / qpmin=0 / qpmax=69 / qpstep=4 / cplxblur=20.0 / qblur=0.5 / vbv_maxrate=62500 / vbv_bufsize=78125 / nal_hrd=none / filler=0 / ip_ratio=1.10 / aq=1:0.50
    Default : Да
    Forced : Нет
    DURATION : 01:30:27.615000000
    NUMBER_OF_FRAMES : 169614
    NUMBER_OF_BYTES : 260527104
    _STATISTICS_WRITING_APP : mkvmerge v7.6.0 ('Garden of Dreams') 32bit built on Feb 8 2015 12:51:39
    _STATISTICS_WRITING_DATE_UTC : 2016-06-08 04:12:45
    _STATISTICS_TAGS : BPS DURATION NUMBER_OF_FRAMES NUMBER_OF_BYTES
    Аудио #1
    Идентификатор : 2
    Формат : AC-3
    Формат/Информация : Audio Coding 3
    Расширение режима : CM (complete main)
    Параметр Endianness формата : Big
    Идентификатор кодека : A_AC3
    Продолжительность : 1 ч. 30 м.
    Вид битрейта : Постоянный
    Битрейт : 384 Кбит/сек
    Каналы : 6 каналов
    Расположение каналов : Front: L C R, Side: L R, LFE
    Частота : 48,0 КГц
    Битовая глубина : 16 бит
    Метод сжатия : С потерями
    Размер потока : 248 Мбайт (6%)
    Заголовок : Дубляж - iTunes
    Язык : Russian
    Default : Да
    Forced : Нет
    Аудио #2
    Идентификатор : 3
    Формат : AC-3
    Формат/Информация : Audio Coding 3
    Расширение режима : CM (complete main)
    Параметр Endianness формата : Big
    Идентификатор кодека : A_AC3
    Продолжительность : 1 ч. 30 м.
    Вид битрейта : Постоянный
    Битрейт : 384 Кбит/сек
    Каналы : 6 каналов
    Расположение каналов : Front: L C R, Side: L R, LFE
    Частота : 48,0 КГц
    Битовая глубина : 16 бит
    Метод сжатия : С потерями
    Размер потока : 248 Мбайт (6%)
    Заголовок : GER
    Язык : German
    Default : Нет
    Forced : Нет
    Меню
    00:00:00.000 : en:00:00:00.000
    00:11:40.325 : en:00:11:40.325
    00:24:47.069 : en:00:24:47.069
    00:35:02.267 : en:00:35:02.267
    00:44:30.209 : en:00:44:30.209
    00:54:34.271 : en:00:54:34.271
    01:04:27.280 : en:01:04:27.280
    01:15:12.633 : en:01:15:12.633
    01:25:14.651 : en:01:25:14.651

    Release was prepared by 60 - fps



    Last edited by Kryl on 2016-07-13 13:55; edited 1 time in total
  2. bot

    Longevity:
    5 years 11 months
    Posts:
    410
    Gender:
    Unknown
    Топик был перенесен из форума Новинки КиноПроката 60 FPS в форум Мультфильмы 60 FPS
    Kryl
    05-Jul-2016 22:01 (after 27 days)


You cannot post new topics in this forum
You cannot reply to topics in this forum
You cannot edit your posts in this forum
You cannot delete your posts in this forum
You cannot vote in polls in this forum
You cannot attach files in this forum
You cannot download files in this forum