1. Longevity:
    7 years
    Posts:
    2413
    Gender:
    Male
    -Rihanna - Take A Bow (2008) Full HD 1080p | 60 fps --Информация о Клипе
    Исполнитель: Rihanna
    Название: Take A Bow
    Год выхода: 2008
    Продолжительность: 00:03:47
    Описание:
    Take a Bow - рус. Откланивайся - песня барбадосской певицы Рианны из переиздания третьего студийного альбома Good Girl Gone Bad: Reloaded, выпущенная пятым синглом с Good Girl Gone Bad в целом, и первым — из переиздания. Песня была создана норвежской продюсерской командой StarGate и написана в сотрудничестве с автором-исполнителем Ne-Yo. «Take a Bow» вышла в свет 15 апреля 2008 года в качестве CD-сингла и цифровой загрузки в Соединённых Штатах Америки.
    Композиция получила положительные отзывы от музыкальных критиков, особенно за произнесение текста, а также за качественную постановку битов в смешении с ритмами баллады. Песня «Take a Bow» приобрела широкий коммерческий успех и достигла первой строчки в чартах Канады, Дании, Ирландии, Словакии и Великобритании. Песня также возглавила чарт Billboard Hot 100, став третьим супер хитом Рианны в Соединённых Штатах Америки. В дополнение к вышеперечисленному, песня вошла в десятку лучших синглов в шести странах.
    Режиссёром музыкального видеоклипа стал Энтони Мандлер, премьера состоялась 25 апреля 2008 года. Съёмки прошли в Венеции, Италия и показывает парня и Рианну, заинтересованную в разрыве отношений, поскольку он вёл себя нечестно по отношению к ней. Видеоклип получил две номинации на Церемонии MTV VMA: Лучшее женское видео и Лучшая режиссура. Песню перепели множество артистов, однако, важнейший кавер принадлежит Лиа Мишель из эпизода «Showmance» американского телесериала Glee.

    Файл
    Кодек: V_MPEG4/ISO/AVC
    Контейнер: MKV
    Формат: AVC
    Качество: Full HD 1080p | 60 fps
    Видео: 1920 x 816 (2,35:1) | 59.940 fps | 24.0 Мбит/сек
    Аудио: AC3 | 640 Кбит/сек | 2.0 канала | 48.0 КГц | 16 бит

    MediaInfo

    Общее
    Уникальный идентификатор : 233096348152847621516503490929409924719 (0xAF5CB94352324BEA9E750B9009CC1E6F)
    Полное имя : H:\Clips\Rihanna - Take A Bow.mkv
    Формат : Matroska
    Версия формата : Version 2
    Размер файла : 669 Мбайт
    Продолжительность : 3 м. 47 с.
    Общий поток : 24,7 Мбит/сек
    Дата кодирования : UTC 2021-04-26 18:29:32
    Программа кодирования : mkvmerge v5.8.0 ('No Sleep / Pillow') built on Sep 2 2012 15:37:04
    Библиотека кодирования : libebml v1.2.3 + libmatroska v1.3.0
    Attachments : Poster
    Видео
    Идентификатор : 1
    Формат : AVC
    Формат/Информация : Advanced Video Codec
    Профиль формата : [email protected]
    Параметр CABAC формата : Да
    Параметр ReFrames формата : 5 кадров
    Режим смешивания : Header stripping
    Идентификатор кодека : V_MPEG4/ISO/AVC
    Продолжительность : 3 м. 47 с.
    Битрейт : 24,0 Мбит/сек
    Ширина : 1920 пикселей
    Высота : 816 пикселей
    Соотношение сторон : 2,35:1
    Режим частоты кадров : Постоянный
    Частота кадров : 59,940 (60000/1001) кадров/сек
    Цветовое пространство : YUV
    Субдискретизация насыщенности : 4:2:0
    Битовая глубина : 8 бит
    Тип развёртки : Прогрессивная
    Бит/(Пиксели*Кадры) : 0.256
    Размер потока : 639 Мбайт (95%)
    Библиотека кодирования : x264 core 146 r2538 121396c
    Настройки программы : cabac=1 / ref=5 / deblock=1:0:0 / analyse=0x3:0x113 / me=umh / subme=8 / psy=1 / psy_rd=1.00:0.25 / mixed_ref=1 / me_range=16 / chroma_me=1 / trellis=1 / 8x8dct=1 / cqm=0 / deadzone=6,6 / fast_pskip=1 / chroma_qp_offset=-4 / threads=12 / lookahead_threads=3 / sliced_threads=0 / nr=0 / decimate=0 / interlaced=0 / bluray_compat=0 / constrained_intra=0 / bframes=3 / b_pyramid=2 / b_adapt=2 / b_bias=0 / direct=3 / weightb=1 / open_gop=0 / weightp=2 / keyint=600 / keyint_min=60 / scenecut=40 / intra_refresh=0 / rc_lookahead=50 / rc=2pass / mbtree=1 / bitrate=24000 / ratetol=1.0 / qcomp=0.80 / qpmin=0 / qpmax=69 / qpstep=4 / cplxblur=20.0 / qblur=0.5 / vbv_maxrate=50000 / vbv_bufsize=50000 / nal_hrd=none / filler=0 / ip_ratio=1.10 / aq=1:0.50
    Язык : English
    Default : Да
    Forced : Нет
    Аудио
    Идентификатор : 2
    Формат : AC-3
    Формат/Информация : Audio Coding 3
    Расширение режима : CM (complete main)
    Параметр Endianness формата : Big
    Режим смешивания : Header stripping
    Идентификатор кодека : A_AC3
    Продолжительность : 3 м. 47 с.
    Вид битрейта : Постоянный
    Битрейт : 640 Кбит/сек
    Каналы : 2 канала
    Расположение каналов : Front: L R
    Частота : 44,1 КГц
    Частота кадров : 28,711 кадров/сек (1536 spf)
    Битовая глубина : 16 бит
    Метод сжатия : С потерями
    Размер потока : 17,4 Мбайт (3%)
    Default : Да
    Forced : Нет

    Release was prepared by 60-fps.org

  2. Longevity:
    5 years 3 months
    Posts:
    11
    Gender:
    Unknown
    Улыбаюсь Улыбаюсь Поцелуй Поцелуй
    28-Sep-2017 10:02 (after 1 day 13 hours)
  3. Longevity:
    2 years 5 months
    Posts:
    5
    Gender:
    Unknown
    Thank you
    08-Nov-2019 19:27 (after 2 years 1 month)
  4. Longevity:
    3 years 3 months
    Posts:
    65
    Gender:
    Male
    Upload the torrent again
    26-Apr-2021 01:37 (after 1 year 5 months)
  5. Longevity:
    3 years 3 months
    Posts:
    65
    Gender:
    Male
    Please re-upload torrent
    26-Apr-2021 15:31 (after 13 hours)
  6. Longevity:
    4 years 8 months
    Posts:
    314
    Gender:
    Male
    Updated
    26-Apr-2021 21:33 (after 6 hours)
  7. Longevity:
    3 years 3 months
    Posts:
    65
    Gender:
    Male
    12451Updated
    Thank you
    27-Apr-2021 04:52 (after 7 hours)


You cannot post new topics in this forum
You cannot reply to topics in this forum
You cannot edit your posts in this forum
You cannot delete your posts in this forum
You cannot vote in polls in this forum
You cannot attach files in this forum
You cannot download files in this forum