Britney Spears - Oops! I Did It Again Uncut (2009) HD 1080p | 60 fps Britney Spears - Lucky (2009) Full HD 1080p | 60 fps Bebe Rexha - I Got You (2017) WEBRip 1080p | 60 fps Dan Balan - Chica Bomb (2010) WEBRip 1080p | 60 fps Luis Fonsi - Despacito ft. Daddy Yankee (2017) WEBRip 1080p | 60 fps Britney Spears - Toxic (2004) HDTVRip 1080p | 60 fps Beyonce - Crazy In Love ft. JAY Z (2009) Full HD 1080p | 60 fps Britney Spears - Stronger (2009) Full HD 1080p | 60 fps
  1. Longevity:
    5 years 2 months
    Posts:
    2418
    Gender:
    Male
    -Rihanna - Take A Bow (2008) Full HD 1080p | 60 fps --Информация о Клипе
    Исполнитель: Rihanna
    Название: Take A Bow
    Год выхода: 2008
    Продолжительность: 00:03:47
    Описание:
    Take a Bow - рус. Откланивайся - песня барбадосской певицы Рианны из переиздания третьего студийного альбома Good Girl Gone Bad: Reloaded, выпущенная пятым синглом с Good Girl Gone Bad в целом, и первым — из переиздания. Песня была создана норвежской продюсерской командой StarGate и написана в сотрудничестве с автором-исполнителем Ne-Yo. «Take a Bow» вышла в свет 15 апреля 2008 года в качестве CD-сингла и цифровой загрузки в Соединённых Штатах Америки.
    Композиция получила положительные отзывы от музыкальных критиков, особенно за произнесение текста, а также за качественную постановку битов в смешении с ритмами баллады. Песня «Take a Bow» приобрела широкий коммерческий успех и достигла первой строчки в чартах Канады, Дании, Ирландии, Словакии и Великобритании. Песня также возглавила чарт Billboard Hot 100, став третьим супер хитом Рианны в Соединённых Штатах Америки. В дополнение к вышеперечисленному, песня вошла в десятку лучших синглов в шести странах.
    Режиссёром музыкального видеоклипа стал Энтони Мандлер, премьера состоялась 25 апреля 2008 года. Съёмки прошли в Венеции, Италия и показывает парня и Рианну, заинтересованную в разрыве отношений, поскольку он вёл себя нечестно по отношению к ней. Видеоклип получил две номинации на Церемонии MTV VMA: Лучшее женское видео и Лучшая режиссура. Песню перепели множество артистов, однако, важнейший кавер принадлежит Лиа Мишель из эпизода «Showmance» американского телесериала Glee.

    Файл
    Кодек: V_MPEG4/ISO/AVC
    Контейнер: MKV
    Формат: AVC
    Качество: Full HD 1080p | 60 fps
    Видео: 1920 x 812 (2.365) | 59.940 fps | 24.0 Мбит/сек
    Аудио: DTS | 1413 Кбит/сек | 2.0 канала | 48.0 КГц | 16 бит

    MediaInfo

    Видео
    Идентификатор : 1
    Формат : AVC
    Формат/Информация : Advanced Video Codec
    Профиль формата : High@L4.1
    Параметр CABAC формата : Да
    Параметр ReFrames формата : 5 кадров
    Идентификатор кодека : V_MPEG4/ISO/AVC
    Продолжительность : 3 м. 47 с.
    Битрейт : 24,0 Мбит/сек
    Ширина : 1920 пикселей
    Высота : 812 пикселей
    Соотношение сторон : 2,35:1
    Режим частоты кадров : Постоянный
    Частота кадров : 59,880 кадров/сек
    Частота кадров в оригинале : 59,940 кадров/сек
    Цветовое пространство : YUV
    Субдискретизация насыщенности : 4:2:0
    Битовая глубина : 8 бит
    Тип развёртки : Прогрессивная
    Бит/(Пиксели*Кадры) : 0.257
    Размер потока : 638 Мбайт (92%)
    Заголовок : www.60-fps.org
    Библиотека кодирования : x264 core 148 r2744 b97ae06
    Настройки программы : cabac=1 / ref=5 / deblock=1:-3:-3 / analyse=0x3:0x113 / me=umh / subme=8 / psy=1 / psy_rd=1.00:0.25 / mixed_ref=1 / me_range=32 / chroma_me=1 / trellis=1 / 8x8dct=1 / cqm=0 / deadzone=6,6 / fast_pskip=1 / chroma_qp_offset=-4 / threads=12 / lookahead_threads=2 / sliced_threads=0 / nr=0 / decimate=0 / interlaced=0 / bluray_compat=0 / constrained_intra=0 / bframes=3 / b_pyramid=2 / b_adapt=1 / b_bias=0 / direct=3 / weightb=1 / open_gop=0 / weightp=2 / keyint=599 / keyint_min=59 / scenecut=40 / intra_refresh=0 / rc_lookahead=50 / rc=2pass / mbtree=1 / bitrate=23999 / ratetol=1.0 / qcomp=0.80 / qpmin=0 / qpmax=69 / qpstep=4 / cplxblur=20.0 / qblur=0.5 / vbv_maxrate=62500 / vbv_bufsize=78125 / nal_hrd=none / filler=0 / ip_ratio=1.10 / aq=1:0.50
    Default : Да
    Forced : Нет
    Аудио
    Идентификатор : 2
    Формат : DTS
    Формат/Информация : Digital Theater Systems
    Режим : 16
    Параметр Endianness формата : Big
    Идентификатор кодека : A_DTS
    Продолжительность : 3 м. 47 с.
    Вид битрейта : Постоянный
    Битрейт : 1413 Кбит/сек
    Каналы : 2 канала
    Расположение каналов : Front: L R
    Частота : 48,0 КГц
    Битовая глубина : 16 бит
    Метод сжатия : С потерями
    Задержка видео : 83 мс.
    Размер потока : 38,4 Мбайт (6%)
    Язык : English
    Default : Да
    Forced : Нет
    DURATION : 00:03:47.606000000
    NUMBER_OF_FRAMES : 21338
    NUMBER_OF_BYTES : 40200792
    _STATISTICS_WRITING_APP : mkvmerge v7.6.0 ('Garden of Dreams') 32bit built on Feb 8 2015 12:51:39
    _STATISTICS_WRITING_DATE_UTC : 2017-09-26 17:46:38
    _STATISTICS_TAGS : BPS DURATION NUMBER_OF_FRAMES NUMBER_OF_BYTES

    Release was prepared by 60 - fps

  2. Longevity:
    3 years 5 months
    Posts:
    11
    Gender:
    Unknown
    Улыбаюсь Улыбаюсь Поцелуй Поцелуй
    28-Sep-2017 10:02 (after 1 day 13 hours)
  3. Longevity:
    7 months 3 days
    Posts:
    5
    Gender:
    Unknown
    Thank you
    08-Nov-2019 19:27 (after 2 years 1 month)


You cannot post new topics in this forum
You cannot reply to topics in this forum
You cannot edit your posts in this forum
You cannot delete your posts in this forum
You cannot vote in polls in this forum
You cannot attach files in this forum
You cannot download files in this forum