Rammstein (БЕЗ ЦЕНЗУРЫ)| WEBRip 1080p | 60 fps Britney Spears - Oops! I Did It Again Uncut (2009) HD 1080p | 60 fps BLACKPINK | WEBRip 1080p | 60 fps Evanescence - Synthesis Live (2018) BDRip 1080p | 60 fps Britney Spears - Toxic (2004) HDTVRip 1080p | 60 fps Jennifer Lopez ft. Iggy Azalea - Booty (2014) Full HD 1080p | 60 fps ITZY | WEBRip 1080p | 60 fps Luis Fonsi - Despacito ft. Daddy Yankee (2017) WEBRip 1080p | 60 fps
  1. Longevity:
    5 years 11 months
    Posts:
    2419
    Gender:
    Male
    -Rihanna - Love The Way You Lie (2010) HDTVRip 1080p | 60 fps- -Информация о Клипе
    Исполнитель: Rihanna
    Название: Love The Way You Lie
    Год выхода: 2010
    Продолжительность: 00:07:39
    Доп. информация:
    Feed (36Mbps) версия выступления. Записано с технического канала.-Файл
    Кодек: MPEG2
    Формат: MKV
    Качество: HDTVRip 1080p
    Видео : 1280 x 720 (1.778) at 60.000 fps 34.2 Мбит/сек
    Аудио : AC-3 | 384 Кбит/сек | 48.0 KHz | 5.1 channels

    MI

    Видео
    Идентификатор : 1
    Формат : MPEG Video
    Версия формата : Version 2
    Профиль формата : Main@High
    Параметр BVOP формата : Да
    Параметр матрицы формата : Выборочная
    Параметр GOP формата : M=3, N=12
    Идентификатор кодека : V_MPEG2
    Идентификатор кодека/Информация : MPEG 1 or 2 Video
    Продолжительность : 7 м. 40 с.
    Вид битрейта : Переменный
    Битрейт : 34,2 Мбит/сек
    Максимальный битрейт : 34,9 Мбит/сек
    Ширина : 1280 пикселей
    Высота : 720 пикселей
    Соотношение сторон : 16:9
    Режим частоты кадров : Постоянный
    Частота кадров : 60,000 кадров/сек
    Частота кадров в оригинале : 59,940 кадров/сек
    Стандарт вещания : Component
    Цветовое пространство : YUV
    Субдискретизация насыщенности : 4:2:0
    Битовая глубина : 8 бит
    Тип развёртки : Прогрессивная
    Метод сжатия : С потерями
    Бит/(Пиксели*Кадры) : 0.618
    Временной код первого кадра : 00:00:00;00
    Оригинал временного кода : Group of pictures header
    Размер потока : 1,83 Гбайт (97%)
    Заголовок : www.60-fps.org
    Default : Да
    Forced : Нет
    Gop_OpenClosed_FirstFrame : Closed
    Аудио
    Идентификатор : 2
    Формат : AC-3
    Формат/Информация : Audio Coding 3
    Расширение режима : CM (complete main)
    Параметр Endianness формата : Big
    Идентификатор кодека : A_AC3
    Продолжительность : 7 м. 40 с.
    Вид битрейта : Постоянный
    Битрейт : 384 Кбит/сек
    Каналы : 6 каналов
    Расположение каналов : Front: L C R, Side: L R, LFE
    Частота : 48,0 КГц
    Битовая глубина : 16 бит
    Метод сжатия : С потерями
    Размер потока : 21,1 Мбайт (1%)
    Заголовок : AC3
    Default : Да
    Forced : Нет

    Release was prepared by 60 - fps



    Last edited by Kryl on 2016-11-17 21:23; edited 1 time in total
  2. Longevity:
    3 years 10 months
    Posts:
    110
    Gender:
    Male
    Windows показывает, что кодек в этом клипе MPEG2, а не MPEG4.
    Поэтому и размер файла относительно большой.
    17-Nov-2016 17:18 (after 1 year 2 months)
  3. Longevity:
    5 years 11 months
    Posts:
    2419
    Gender:
    Male
    6884Windows показывает, что кодек в этом клипе MPEG2, а не MPEG4.
    Поэтому и размер файла относительно большой.
    тАк это не моя поделка )))
    Это даже не поделка , а фармат вещания технических-спутниковых каналов ..
    17-Nov-2016 19:24 (after 2 hours 5 minutes)
  4. Longevity:
    3 years 10 months
    Posts:
    110
    Gender:
    Male
    6885
    6884Windows показывает, что кодек в этом клипе MPEG2, а не MPEG4.
    Поэтому и размер файла относительно большой.
    тАк это не моя поделка )))
    Это даже не поделка , а фармат вещания технических-спутниковых каналов ..
    Тогда, на мой взгляд, в описании клипа нужно поправить название кодека...
    17-Nov-2016 21:17 (after 1 hour 52 minutes)
  5. Longevity:
    5 years 11 months
    Posts:
    2419
    Gender:
    Male
    Cynep,
    Ну извините не досмотрел Смеюсь
    17-Nov-2016 21:23 (after 5 minutes)


You cannot post new topics in this forum
You cannot reply to topics in this forum
You cannot edit your posts in this forum
You cannot delete your posts in this forum
You cannot vote in polls in this forum
You cannot attach files in this forum
You cannot download files in this forum