[Цитировать]
Kryl

-Rihanna - Love The Way You Lie (2010) HDTV 720p | 60 fps
Part 2
What's My Name, Only Girl (In The World) Live @ AMA 2010
- Информация о Клипе
Исполнитель: Rihanna
Название: Love The Way You Lie
Год выхода: 2010
Продолжительность: 00:07:39-Файл
Кодек: MPEG2
Формат: TS
Качество: HDTV 720p
Видео: 1280 x 720 (1.778) at 59.940 fps 34.0 Мбит/сек
Аудио 1: MPEG2 | 384 Кбит/сек | 48.0 KHz | 2 channels
Аудио 2: AC3 | 384 Кбит/сек | 48.0 KHz | 6 channels
Доп. информация: Feed (36Mbps) версия выступления. Записано с технического канала.

MI

Формат : MPEG-TS
Размер файла : 1,96 Гбайт
Продолжительность : 7 м. 39 с.
Режим общего битрейта : Переменный
Общий поток : 36,6 Мбит/сек
Максимальный общий битрейт : 35,5 Мбит/сек
Видео
Идентификатор : 4113 (0x1011)
Идентификатор меню : 1 (0x1)
Формат : MPEG Video
Версия формата : Version 2
Профиль формата : Main@High
Параметр BVOP формата : Да
Параметр матрицы формата : Выборочная
Параметр GOP формата : M=3, N=12
Идентификатор кодека : 2
Продолжительность : 7 м. 39 с.
Вид битрейта : Переменный
Битрейт : 34,0 Мбит/сек
Максимальный битрейт : 34,9 Мбит/сек
Ширина : 1280 пикселей
Высота : 720 пикселей
Соотношение сторон : 16:9
Частота кадров : 59,940 кадров/сек
Стандарт вещания : Component
Цветовое пространство : YUV
Субдискретизация насыщенности : 4:2:0
Битовая глубина : 8 бит
Тип развёртки : Прогрессивная
Метод сжатия : С потерями
Бит/(Пиксели*Кадры) : 0.616
Временной код первого кадра : 00:00:00;00
Оригинал временного кода : Group of pictures header
Размер потока : 1,82 Гбайт (93%)
Аудио #1
Идентификатор : 4352 (0x1100)
Идентификатор меню : 1 (0x1)
Формат : MPEG Audio
Версия формата : Version 1
Профиль формата : Layer 2
Идентификатор кодека : 4
Продолжительность : 7 м. 39 с.
Вид битрейта : Постоянный
Битрейт : 384 Кбит/сек
Каналы : 2 канала
Частота : 48,0 КГц
Метод сжатия : С потерями
Размер потока : 21,1 Мбайт (1%)
Язык : English
Аудио #2
Идентификатор : 4353 (0x1101)
Идентификатор меню : 1 (0x1)
Формат : AC-3
Формат/Информация : Audio Coding 3
Расширение режима : CM (complete main)
Параметр Endianness формата : Big
Идентификатор кодека : 129
Продолжительность : 7 м. 40 с.
Вид битрейта : Постоянный
Битрейт : 384 Кбит/сек
Каналы : 6 каналов
Расположение каналов : Front: L C R, Side: L R, LFE
Частота : 48,0 КГц
Битовая глубина : 16 бит
Метод сжатия : С потерями
Размер потока : 21,1 Мбайт (1%)

Релиз подготовлен 60 - fps

 
Показать сообщения:    

Текущее время: 10-Дек 19:32

Часовой пояс: UTC + 3


Вы не можете начинать темы
Вы не можете отвечать на сообщения
Вы не можете редактировать свои сообщения
Вы не можете удалять свои сообщения
Вы не можете голосовать в опросах
Вы не можете прикреплять файлы к сообщениям
Вы не можете скачивать файлы