[Цитировать]
Kryl

-Rihanna - Kiss It Better (2016) Master | ProRes -Информация о Клипе
Исполнитель: Rihanna
Название: Kiss It Better
Год выхода: 2016
Продолжительность: 00:04:08-Описание:
Kiss It Better - сингл барбадосской певицы Rihanna, второй из её восьмого студийного альбома Anti (2016), выпущенный 29 марта 2016 года. Песня была написана в соавторстве с Рианной и британской исполнительницей Наталией Киллс. Песня была отправлена на радиостанции 30 марта 2016 года, совместно с третьим синглом с альбома певицы «Needed Me». Изначально песня дебютировала на 22 месте в чарте Billboard Bubbling Under Hot 100 Singles, в качестве сингла дебют состоялся на втором месте в том же чарте. В чарте Billboard Hot 100 дебют состоялся на 80 месте.
«Kiss It Better» — это поп и РнБ рок-баллада, совмещённая с электронным гитарным рифом и музыкальным трюком с влиянием рок-баллад 80-х и 90-х. Лирика песни сосредоточена на разрушительных для певицы отношениях, о чём она знает, понимает, что это неправильно, но не находит в себе сил сопротивляться им.
-Файл
Кодек: APCH
Контейнер: MOV
Формат: ProRes
Качество: Master
Видео: 1920 x 1080 (1.778) | 23.976 fps | 154 Мбит/сек
Аудио: PCM | 1411,2 Кбит/сек | 2.0 канала | 44.1 КГц | 16 бит

MediaInfo

Формат : MPEG-4
Профиль формата : QuickTime
Идентификатор кодека : qt
Размер файла : 4,49 Гбайт
Продолжительность : 4 м. 8 с.
Режим общего битрейта : Переменный
Общий поток : 155 Мбит/сек
Дата кодирования : UTC 2016-06-28 12:55:21
Дата пометки : UTC 2016-06-28 12:55:46
Библиотека кодирования : Apple QuickTime 7.7.6
Media/UUID : 06C3FC8D-AC48-48AE-B449-58614665DE0B
Видео
Идентификатор : 1
Формат : ProRes
Версия формата : Version 0
Профиль формата : High
Идентификатор кодека : apch
Продолжительность : 4 м. 8 с.
Вид битрейта : Переменный
Битрейт : 154 Мбит/сек
Ширина : 1920 пикселей
Высота : 1080 пикселей
Соотношение сторон : 16:9
Режим частоты кадров : Постоянный
Частота кадров : 23,976 кадра/сек
Цветовое пространство : YUV
Субдискретизация насыщенности : 4:2:2
Тип развёртки : Прогрессивная
Бит/(Пиксели*Кадры) : 3.096
Размер потока : 4,45 Гбайт (99%)
Библиотека кодирования : Apple
Язык : English
Дата кодирования : UTC 2016-03-24 19:55:38
Дата пометки : UTC 2016-06-28 12:55:46
Основные цвета : BT.709
Характеристики трансфера : BT.709
Коэффициенты матрицы : BT.709
matrix_coefficients_Original : BT.709
Аудио
Идентификатор : 5
Формат : PCM
Параметр Endianness формата : Little
Параметр Sign формата : Signed
Идентификатор кодека : sowt
Продолжительность : 4 м. 8 с.
Вид битрейта : Постоянный
Битрейт : 1411,2 Кбит/сек
Каналы : 2 канала
Расположение каналов : Front: L R
Частота : 44,1 КГц
Битовая глубина : 16 бит
Размер потока : 41,8 Мбайт (1%)
Язык : English
Дата кодирования : UTC 2016-06-28 12:54:59
Дата пометки : UTC 2016-06-28 12:55:46
Текст #1
Идентификатор : 4-CC1
Формат : EIA-608
Режим смешивания : Final Cut / CDP
Идентификатор кодека : c708
Продолжительность : 4 м. 8 с.
Вид битрейта : Постоянный
Частота кадров : 23,976 кадра/сек
Размер потока : 0,00 байт (0%)
Язык : English
Дата кодирования : UTC 2016-03-24 19:55:38
Дата пометки : UTC 2016-06-28 12:55:46
Текст #2
Идентификатор : 4-1
Формат : EIA-708
Режим смешивания : Final Cut / CDP
Идентификатор кодека : c708
Продолжительность : 4 м. 8 с.
Вид битрейта : Постоянный
Частота кадров : 23,976 кадра/сек
Размер потока : 0,00 байт (0%)
Язык : English
Дата кодирования : UTC 2016-03-24 19:55:38
Дата пометки : UTC 2016-06-28 12:55:46
Прочее
Идентификатор : 3
Тип : Time code
Формат : QuickTime TC
Продолжительность : 4 м. 8 с.
Временной код первого кадра : 01:00:00:00
TimeCode_Striped/String : Да
Язык : English
Дата кодирования : UTC 2016-03-24 19:55:38
Дата пометки : UTC 2016-06-28 12:55:46

Релиз подготовлен 60 - fps

 
Показать сообщения:    

Текущее время: 18-Окт 13:59

Часовой пояс: UTC + 3


Вы не можете начинать темы
Вы не можете отвечать на сообщения
Вы не можете редактировать свои сообщения
Вы не можете удалять свои сообщения
Вы не можете голосовать в опросах
Вы не можете прикреплять файлы к сообщениям
Вы не можете скачивать файлы