VIP

  1. Longevity:
    4 years 10 months
    Posts:
    336
    Gender:
    Male
    Заказать фильмы, клипы или любое другое видео в качестве 60fps может каждый!!!
    Стоимость одного видео 50руб. !!!
    Пишите Талямба в личку, всё обсудите...
    Риддик: Трилогия / Riddick: Trilogy (2000-2013) BDRip 1080p | Director's Cut | 60 fps Впервые появляется в американском телевизионном фильме 2000 года «Чёрная дыра». Риддик предстаёт перед зрителями в качестве закоренелого уголовника, пойманного охотником за головами, так как за его голову объявлено вознаграждение.
    По версии Риддика, в одной из тюрем за двадцать ментоловых сигарет тюремный врач сделал ему операцию на глаза, поэтому его специфическое зрение, позволяющее видеть в темноте, помогает выжить героям фильма, однако позже выясняется, что это ложь. Правда о появлении этих глаз рассказывается в игре «Escape from Butcher Bay», где становится ясно, что доктор не имеет к этому отношения. По сюжету игры предлагается версия, что Риддик осознал себя как фурианца, и связь с предками вернула ему родное зрение. В книге «Хроники Риддика» Алана Дина Фостера предлагается иная версия, по которой Риддик был элитным бойцом Альянса искусственно выведенный элементалями, которые пытались воскресить расу фурианцев, но вместо этого у них получился только Риддик и чешуйчатые собаки (Риддик встречается с ними на планете-тюрьме Крематория, и они сразу узнают его).
    В фильме раскрываются такие особенности личности персонажа, как привычка говорить с самим собой (возможно — из-за долгой изоляции в тюрьмах), скверный характер, сарказм и пристрастие к алкоголю и женщинам, что не мешает ему находиться в прекрасной физической форме и обладать чрезвычайно развитым обонянием. Постепенно при развитии сюжета выясняется, что Риддик — вовсе не громила, готовый убивать без разбора; он обладает смекалкой, может анализировать ситуацию и делать верные выводы.
    Риддик возвращается в следующей картине «Хроники Риддика» уже не столько в качестве озлобленного уголовника, сколько в качестве борца за свободу. Он заметно изменился, живя на далёкой покрытой снегами планете, сильно оброс. Впрочем, скоро он приобретает привычный для аудитории вид: гладко выбритая голова и тёмные очки. Он вновь и вновь использует свой нож, проявляя при этом звериную жестокость, но всё же пытается спасти единственных небезразличных ему людей, тех, кого он спас когда-то на далёкой планете от опасных хищников.
    Сюжет фильма «Риддик» 2013 года — продолжение событий первых двух частей. Риддик хочет найти родную планету под названием Фурия, но оказывается на необитаемой планете, где он в очередной раз должен выжить и победить чудовищ и охотников за головами.
    Вин Дизель сравнил своего персонажа с героями саги Звёздные войны. Так же как и они, Риддик не знает своего прошлого и, постепенно разбираясь с ним, познаёт новые грани своей натуры.

    Черная Дыра / Pitch Black (2000)

    Черная Дыра / Pitch Black (2000)
    Год выпуска: 2000 г.
    Жанр: Фантастика, боевик
    Страна: США, Австралия
    Режиссер: Дэвид Туи
    Продолжительность: 01:51:55
    Перевод: Дубляж, многоголосый закадровый, двухголосый закадровый, авторский
    В ролях: Вин Дизель, Рада Митчел, Коул Хаузер, Кит Дэвид, Льюис Фитц-Геральд, Клаудия Блэк, Джон Мур, Саймон Бурк, Лес Чэнтери, Рик Андерсон
    Описание: В недалеком будущем космический корабль терпит бедствие, в результате чего совершает вынужденную посадку на отдаленной планете. Но в результате такой посадки погибает командир корабля, часть команды и большинство пассажиров.
    Оставшиеся в живых оказываются одни на жуткой и безжизненной планете. Первое, что бросается в глаза - это то, что планета имеет три солнца, из-за чего все живое погибает в этой пустыне. Но как только планета погружается в темноту, появляются какие-то странные существа...
    Формат видео: MKV
    Качество видео: BDRip 1080p | 60fps
    Видео кодек: H.264
    Аудио кодек: AC3
    Видео: 1920*816, 30,0 Мбит/сек, 59,940 кадров/сек
    Аудио 1: Русский, AC3, 6 ch, 448 Кбит/с Дубляж +Киномания
    Аудио 2: Русский, AC3, 6 ch, 640 Кбит/с Многоголосый закадровый, Киномания
    Аудио 3: Русский, AC3, 2 ch, 192 Кбит/с Многоголосый закадровый, Blu-ray CEE / Первый канал
    Аудио 4: Русский, AC3, 6 ch, 448 Кбит/с Двухголосый закадровый, Tycoon
    Аудио 5: Русский, AC3, 6 ch, 640 Кбит/с Одноголосый закадровый, А.Гаврилов
    Аудио 6: Русский, AC3, 6 ch, 448 Кбит/с Одноголосый закадровый, Ю. Живов
    Аудио 7: Русский, AC3, 6 ch, 640 Кбит/с Одноголосый закадровый, Д. Пучков
    Аудио 8: Русский, AC3, 6 ch, 640 Кбит/с Одноголосый закадровый, ?
    Аудио 9: Русский, AC3, 2 ch, 192 Кбит/с Одноголосый закадровый, С.Визгунов
    Аудио 10: Английский, AC3, 6 ch, 640 Кбит/с Оригинал
    Субтитры: Русские, Английские
    Главы: Есть

    Отчёт MediaInfo

    Общее
    Уникальный идентификатор : 230280643274825678373948817202192708557 (0xAD3E704B56A78EBB857107B14EEDF3CD)
    Полное имя : D:\Movie\Риддик Трилогия\1 Черная дыра (2000).mkv
    Формат : Matroska
    Версия формата : Version 2
    Размер файла : 27,2 Гбайт
    Продолжительность : 1 ч. 51 м.
    Общий поток : 34,9 Мбит/сек
    Название фильма : Черная дыра (2000)
    Дата кодирования : UTC 2021-11-07 21:46:34
    Программа кодирования : mkvmerge v5.8.0 ('No Sleep / Pillow') built on Sep 2 2012 15:37:04
    Библиотека кодирования : libebml v1.2.3 + libmatroska v1.3.0
    Attachments : Poster.png
    Видео
    Идентификатор : 1
    Формат : AVC
    Формат/Информация : Advanced Video Codec
    Профиль формата : High@L4.1
    Параметр CABAC формата : Да
    Параметр ReFrames формата : 5 кадров
    Режим смешивания : Header stripping
    Идентификатор кодека : V_MPEG4/ISO/AVC
    Продолжительность : 1 ч. 51 м.
    Битрейт : 30,0 Мбит/сек
    Ширина : 1920 пикселей
    Высота : 816 пикселей
    Соотношение сторон : 2,35:1
    Режим частоты кадров : Постоянный
    Частота кадров : 59,940 (60000/1001) кадров/сек
    Цветовое пространство : YUV
    Субдискретизация насыщенности : 4:2:0
    Битовая глубина : 8 бит
    Тип развёртки : Прогрессивная
    Бит/(Пиксели*Кадры) : 0.319
    Размер потока : 22,8 Гбайт (84%)
    Библиотека кодирования : x264 core 146 r2538 121396c
    Настройки программы : cabac=1 / ref=5 / deblock=1:0:0 / analyse=0x3:0x113 / me=umh / subme=8 / psy=1 / psy_rd=1.00:0.25 / mixed_ref=1 / me_range=32 / chroma_me=1 / trellis=1 / 8x8dct=1 / cqm=0 / deadzone=6,6 / fast_pskip=1 / chroma_qp_offset=-4 / threads=12 / lookahead_threads=3 / sliced_threads=0 / nr=0 / decimate=0 / interlaced=0 / bluray_compat=0 / constrained_intra=0 / bframes=3 / b_pyramid=2 / b_adapt=2 / b_bias=0 / direct=3 / weightb=1 / open_gop=0 / weightp=2 / keyint=600 / keyint_min=60 / scenecut=40 / intra_refresh=0 / rc_lookahead=50 / rc=2pass / mbtree=1 / bitrate=30000 / ratetol=1.0 / qcomp=0.80 / qpmin=0 / qpmax=69 / qpstep=4 / cplxblur=20.0 / qblur=0.5 / vbv_maxrate=50000 / vbv_bufsize=50000 / nal_hrd=none / filler=0 / ip_ratio=1.10 / aq=1:0.50
    Язык : English
    Default : Да
    Forced : Нет
    Аудио #1
    Идентификатор : 2
    Формат : AC-3
    Формат/Информация : Audio Coding 3
    Расширение режима : CM (complete main)
    Параметр Endianness формата : Big
    Режим смешивания : Header stripping
    Идентификатор кодека : A_AC3
    Продолжительность : 1 ч. 51 м.
    Вид битрейта : Постоянный
    Битрейт : 448 Кбит/сек
    Каналы : 6 каналов
    Расположение каналов : Front: L C R, Side: L R, LFE
    Частота : 48,0 КГц
    Частота кадров : 31,250 кадров/сек (1536 spf)
    Битовая глубина : 16 бит
    Метод сжатия : С потерями
    Размер потока : 359 Мбайт (1%)
    Заголовок : Дубляж +Киномания
    Язык : Russian
    Default : Да
    Forced : Нет
    Аудио #2
    Идентификатор : 3
    Формат : AC-3
    Формат/Информация : Audio Coding 3
    Расширение режима : CM (complete main)
    Параметр Endianness формата : Big
    Режим смешивания : Header stripping
    Идентификатор кодека : A_AC3
    Продолжительность : 1 ч. 51 м.
    Вид битрейта : Постоянный
    Битрейт : 640 Кбит/сек
    Каналы : 6 каналов
    Расположение каналов : Front: L C R, Side: L R, LFE
    Частота : 48,0 КГц
    Частота кадров : 31,250 кадров/сек (1536 spf)
    Битовая глубина : 16 бит
    Метод сжатия : С потерями
    Размер потока : 512 Мбайт (2%)
    Заголовок : Многоголосый закадровый, Киномания
    Язык : Russian
    Default : Нет
    Forced : Нет
    Аудио #3
    Идентификатор : 4
    Формат : AC-3
    Формат/Информация : Audio Coding 3
    Расширение режима : CM (complete main)
    Параметр Endianness формата : Big
    Режим смешивания : Header stripping
    Идентификатор кодека : A_AC3
    Продолжительность : 1 ч. 51 м.
    Вид битрейта : Постоянный
    Битрейт : 192 Кбит/сек
    Каналы : 2 канала
    Расположение каналов : Front: L R
    Частота : 48,0 КГц
    Частота кадров : 31,250 кадров/сек (1536 spf)
    Битовая глубина : 16 бит
    Метод сжатия : С потерями
    Размер потока : 154 Мбайт (1%)
    Заголовок : Многоголосый закадровый, Blu-ray CEE / Первый канал
    Язык : Russian
    Default : Нет
    Forced : Нет
    Аудио #4
    Идентификатор : 5
    Формат : AC-3
    Формат/Информация : Audio Coding 3
    Расширение режима : CM (complete main)
    Параметр Endianness формата : Big
    Режим смешивания : Header stripping
    Идентификатор кодека : A_AC3
    Продолжительность : 1 ч. 51 м.
    Вид битрейта : Постоянный
    Битрейт : 448 Кбит/сек
    Каналы : 6 каналов
    Расположение каналов : Front: L C R, Side: L R, LFE
    Частота : 48,0 КГц
    Частота кадров : 31,250 кадров/сек (1536 spf)
    Битовая глубина : 16 бит
    Метод сжатия : С потерями
    Размер потока : 359 Мбайт (1%)
    Заголовок : Двухголосый закадровый, Tycoon
    Язык : Russian
    Default : Нет
    Forced : Нет
    Аудио #5
    Идентификатор : 6
    Формат : AC-3
    Формат/Информация : Audio Coding 3
    Расширение режима : CM (complete main)
    Параметр Endianness формата : Big
    Режим смешивания : Header stripping
    Идентификатор кодека : A_AC3
    Продолжительность : 1 ч. 51 м.
    Вид битрейта : Постоянный
    Битрейт : 640 Кбит/сек
    Каналы : 6 каналов
    Расположение каналов : Front: L C R, Side: L R, LFE
    Частота : 48,0 КГц
    Частота кадров : 31,250 кадров/сек (1536 spf)
    Битовая глубина : 16 бит
    Метод сжатия : С потерями
    Размер потока : 512 Мбайт (2%)
    Заголовок : Одноголосый закадровый, А.Гаврилов
    Язык : Russian
    Default : Нет
    Forced : Нет
    Аудио #6
    Идентификатор : 7
    Формат : AC-3
    Формат/Информация : Audio Coding 3
    Расширение режима : CM (complete main)
    Параметр Endianness формата : Big
    Режим смешивания : Header stripping
    Идентификатор кодека : A_AC3
    Продолжительность : 1 ч. 51 м.
    Вид битрейта : Постоянный
    Битрейт : 448 Кбит/сек
    Каналы : 6 каналов
    Расположение каналов : Front: L C R, Side: L R, LFE
    Частота : 48,0 КГц
    Частота кадров : 31,250 кадров/сек (1536 spf)
    Битовая глубина : 16 бит
    Метод сжатия : С потерями
    Размер потока : 359 Мбайт (1%)
    Заголовок : Одноголосый закадровый, Ю. Живов
    Язык : Russian
    Default : Нет
    Forced : Нет
    Аудио #7
    Идентификатор : 8
    Формат : AC-3
    Формат/Информация : Audio Coding 3
    Расширение режима : CM (complete main)
    Параметр Endianness формата : Big
    Режим смешивания : Header stripping
    Идентификатор кодека : A_AC3
    Продолжительность : 1 ч. 51 м.
    Вид битрейта : Постоянный
    Битрейт : 640 Кбит/сек
    Каналы : 6 каналов
    Расположение каналов : Front: L C R, Side: L R, LFE
    Частота : 48,0 КГц
    Частота кадров : 31,250 кадров/сек (1536 spf)
    Битовая глубина : 16 бит
    Метод сжатия : С потерями
    Размер потока : 512 Мбайт (2%)
    Заголовок : Одноголосый закадровый, Д. Пучков
    Язык : Russian
    Default : Нет
    Forced : Нет
    Аудио #8
    Идентификатор : 9
    Формат : AC-3
    Формат/Информация : Audio Coding 3
    Расширение режима : CM (complete main)
    Параметр Endianness формата : Big
    Режим смешивания : Header stripping
    Идентификатор кодека : A_AC3
    Продолжительность : 1 ч. 51 м.
    Вид битрейта : Постоянный
    Битрейт : 640 Кбит/сек
    Каналы : 6 каналов
    Расположение каналов : Front: L C R, Side: L R, LFE
    Частота : 48,0 КГц
    Частота кадров : 31,250 кадров/сек (1536 spf)
    Битовая глубина : 16 бит
    Метод сжатия : С потерями
    Размер потока : 512 Мбайт (2%)
    Заголовок : Одноголосый закадровый, ?
    Язык : Russian
    Default : Нет
    Forced : Нет
    Аудио #9
    Идентификатор : 10
    Формат : AC-3
    Формат/Информация : Audio Coding 3
    Расширение режима : CM (complete main)
    Параметр Endianness формата : Big
    Режим смешивания : Header stripping
    Идентификатор кодека : A_AC3
    Продолжительность : 1 ч. 51 м.
    Вид битрейта : Постоянный
    Битрейт : 192 Кбит/сек
    Каналы : 2 канала
    Расположение каналов : Front: L R
    Частота : 48,0 КГц
    Частота кадров : 31,250 кадров/сек (1536 spf)
    Битовая глубина : 16 бит
    Метод сжатия : С потерями
    Размер потока : 154 Мбайт (1%)
    Заголовок : Одноголосый закадровый, С.Визгунов
    Язык : Russian
    Default : Нет
    Forced : Нет
    Аудио #10
    Идентификатор : 11
    Формат : AC-3
    Формат/Информация : Audio Coding 3
    Расширение режима : CM (complete main)
    Параметр Endianness формата : Big
    Режим смешивания : Header stripping
    Идентификатор кодека : A_AC3
    Продолжительность : 1 ч. 51 м.
    Вид битрейта : Постоянный
    Битрейт : 640 Кбит/сек
    Каналы : 6 каналов
    Расположение каналов : Front: L C R, Side: L R, LFE
    Частота : 48,0 КГц
    Частота кадров : 31,250 кадров/сек (1536 spf)
    Битовая глубина : 16 бит
    Метод сжатия : С потерями
    Размер потока : 512 Мбайт (2%)
    Заголовок : Оригинал
    Язык : English
    Default : Нет
    Forced : Нет
    Текст #1
    Идентификатор : 12
    Формат : UTF-8
    Идентификатор кодека : S_TEXT/UTF8
    Идентификатор кодека/Информация : UTF-8 Plain Text
    Заголовок : forced
    Язык : Russian
    Default : Нет
    Forced : Нет
    Текст #2
    Идентификатор : 13
    Формат : UTF-8
    Идентификатор кодека : S_TEXT/UTF8
    Идентификатор кодека/Информация : UTF-8 Plain Text
    Язык : Russian
    Default : Нет
    Forced : Нет
    Текст #3
    Идентификатор : 14
    Формат : UTF-8
    Идентификатор кодека : S_TEXT/UTF8
    Идентификатор кодека/Информация : UTF-8 Plain Text
    Заголовок : Пучков
    Язык : Russian
    Default : Нет
    Forced : Нет
    Текст #4
    Идентификатор : 15
    Формат : UTF-8
    Идентификатор кодека : S_TEXT/UTF8
    Идентификатор кодека/Информация : UTF-8 Plain Text
    Заголовок : Клавдиенко
    Язык : Russian
    Default : Нет
    Forced : Нет
    Текст #5
    Идентификатор : 16
    Формат : UTF-8
    Идентификатор кодека : S_TEXT/UTF8
    Идентификатор кодека/Информация : UTF-8 Plain Text
    Язык : English
    Default : Нет
    Forced : Нет
    Меню
    00:00:00.000 : en:The Animal Side
    00:02:56.885 : en:Crash Landing
    00:08:28.007 : en:The Survivors
    00:17:05.858 : en:The Dead Planet
    00:27:13.632 : en:The Other Inhabitants
    00:32:27.988 : en:Into the Hole
    00:36:49.916 : en:Riddick's Deal
    00:46:49.390 : en:The Coming Eclipse
    00:56:08.907 : en:Darkness Falls
    01:02:45.678 : en:Just Don't Run
    01:08:07.750 : en:The Escape Plan
    01:14:22.291 : en:Paris's Demise
    01:20:00.504 : en:Duel in the Dark
    01:25:38.800 : en:Running the Gauntlet
    01:30:14.909 : en:Survival Instinct
    01:38:59.976 : en:Sacrifices
    01:43:37.878 : en:Say Good Night
    01:46:13.867 : en:End Titles

    Хроники Риддика / The chronicles of Riddick (2004)

    Хроники Риддика / The chronicles of Riddick (2004)
    Год выпуска: 2004 г.
    Жанр: Фантастика, боевик
    Страна: США
    Режиссер: Дэвид Туи
    Продолжительность: 02:14:05
    Перевод: Дубляж, Многоголосый закадровый, двухголосый закадровый, авторский
    В ролях: Вин Дизель, Колм Фиор, Тэнди Ньютон, Джуди Денч, Карл Урбан, Алекса Давалос, Лайнас Роуч, Йорик ван Вагенинген, Ник Чинланд, Кит Дэвид
    Описание: Последние пять лет Риддик провел в бегах среди забытых миров на задворках галактики, прячась от наемников, назначивших цену за его голову. Теперь беглец оказался на планете Гелион, где живет прогрессивное многонациональное общество, завоеванное лордом Маршалом, фанатиком, решившим поработить человечество армадой своих воинов, некромонгеров.
    Формат видео: MKV
    Качество видео: BDRip 1080p | 60fps
    Видео кодек: H.264
    Аудио кодек: AC3
    Видео: 1920*800, 30,0 Мбит/сек, 59,940 кадров/сек
    Аудио 1: Русский, AC3, 6 ch, 640 Кбит/с Дубляж Custom
    Аудио 2: Русский, AC3, 6 ch, 640 Кбит/с Многоголосый закадровый, Киномания
    Аудио 3: Русский, AC3, 6 ch, 640 Кбит/с Многоголосый закадровый, CP Digital
    Аудио 4: Русский, AC3, 6 ch, 640 Кбит/с Двухголосый закадровый, Tycoon
    Аудио 5: Русский, AC3, 6 ch, 640 Кбит/с Одноголосый закадровый, А. Гаврилов
    Аудио 6: Русский, AC3, 6 ch, 640 Кбит/с Одноголосый закадровый, Ю.Живов
    Аудио 7: Русский, AC3, 6 ch, 640 Кбит/с Одноголосый закадровый, Д.Пучков
    Аудио 8: Английский, AC3, 6 ch, 640 Кбит/с Оригинал
    Субтитры: Русские, Английские
    Главы: Есть

    Отчёт MediaInfo

    Общее
    Уникальный идентификатор : 216819236072838332169174109123882832506 (0xA31DDDAD6769ED19B51735F8DFB4D27A)
    Полное имя : D:\Movie\Риддик Трилогия\2 Хроники Риддика (2004).mkv
    Формат : Matroska
    Версия формата : Version 2
    Размер файла : 32,8 Гбайт
    Продолжительность : 2 ч. 14 м.
    Общий поток : 35,0 Мбит/сек
    Название фильма : Хроники Риддика (2004)
    Дата кодирования : UTC 2021-11-08 09:52:09
    Программа кодирования : mkvmerge v5.8.0 ('No Sleep / Pillow') built on Sep 2 2012 15:37:04
    Библиотека кодирования : libebml v1.2.3 + libmatroska v1.3.0
    Attachments : Poster.png
    Видео
    Идентификатор : 1
    Формат : AVC
    Формат/Информация : Advanced Video Codec
    Профиль формата : High@L4.1
    Параметр CABAC формата : Да
    Параметр ReFrames формата : 5 кадров
    Режим смешивания : Header stripping
    Идентификатор кодека : V_MPEG4/ISO/AVC
    Продолжительность : 2 ч. 14 м.
    Битрейт : 30,0 Мбит/сек
    Ширина : 1920 пикселей
    Высота : 800 пикселей
    Соотношение сторон : 2,40:1
    Режим частоты кадров : Постоянный
    Частота кадров : 59,940 (60000/1001) кадров/сек
    Цветовое пространство : YUV
    Субдискретизация насыщенности : 4:2:0
    Битовая глубина : 8 бит
    Тип развёртки : Прогрессивная
    Бит/(Пиксели*Кадры) : 0.326
    Размер потока : 27,3 Гбайт (83%)
    Библиотека кодирования : x264 core 146 r2538 121396c
    Настройки программы : cabac=1 / ref=5 / deblock=1:0:0 / analyse=0x3:0x113 / me=umh / subme=8 / psy=1 / psy_rd=1.00:0.25 / mixed_ref=1 / me_range=32 / chroma_me=1 / trellis=1 / 8x8dct=1 / cqm=0 / deadzone=6,6 / fast_pskip=1 / chroma_qp_offset=-4 / threads=12 / lookahead_threads=3 / sliced_threads=0 / nr=0 / decimate=0 / interlaced=0 / bluray_compat=0 / constrained_intra=0 / bframes=3 / b_pyramid=2 / b_adapt=2 / b_bias=0 / direct=3 / weightb=1 / open_gop=0 / weightp=2 / keyint=600 / keyint_min=60 / scenecut=40 / intra_refresh=0 / rc_lookahead=50 / rc=2pass / mbtree=1 / bitrate=30000 / ratetol=1.0 / qcomp=0.80 / qpmin=0 / qpmax=69 / qpstep=4 / cplxblur=20.0 / qblur=0.5 / vbv_maxrate=50000 / vbv_bufsize=50000 / nal_hrd=none / filler=0 / ip_ratio=1.10 / aq=1:0.50
    Язык : English
    Default : Да
    Forced : Нет
    Аудио #1
    Идентификатор : 2
    Формат : AC-3
    Формат/Информация : Audio Coding 3
    Расширение режима : CM (complete main)
    Параметр Endianness формата : Big
    Режим смешивания : Header stripping
    Идентификатор кодека : A_AC3
    Продолжительность : 2 ч. 14 м.
    Вид битрейта : Постоянный
    Битрейт : 640 Кбит/сек
    Каналы : 6 каналов
    Расположение каналов : Front: L C R, Side: L R, LFE
    Частота : 48,0 КГц
    Частота кадров : 31,250 кадров/сек (1536 spf)
    Битовая глубина : 16 бит
    Метод сжатия : С потерями
    Размер потока : 614 Мбайт (2%)
    Заголовок : Дубляж Custom
    Язык : Russian
    Default : Да
    Forced : Нет
    Аудио #2
    Идентификатор : 3
    Формат : AC-3
    Формат/Информация : Audio Coding 3
    Расширение режима : CM (complete main)
    Параметр Endianness формата : Big
    Режим смешивания : Header stripping
    Идентификатор кодека : A_AC3
    Продолжительность : 2 ч. 14 м.
    Вид битрейта : Постоянный
    Битрейт : 640 Кбит/сек
    Каналы : 6 каналов
    Расположение каналов : Front: L C R, Side: L R, LFE
    Частота : 48,0 КГц
    Частота кадров : 31,250 кадров/сек (1536 spf)
    Битовая глубина : 16 бит
    Метод сжатия : С потерями
    Размер потока : 614 Мбайт (2%)
    Заголовок : Многоголосый закадровый, Киномания
    Язык : Russian
    Default : Нет
    Forced : Нет
    Аудио #3
    Идентификатор : 4
    Формат : AC-3
    Формат/Информация : Audio Coding 3
    Расширение режима : CM (complete main)
    Параметр Endianness формата : Big
    Режим смешивания : Header stripping
    Идентификатор кодека : A_AC3
    Продолжительность : 2 ч. 14 м.
    Вид битрейта : Постоянный
    Битрейт : 640 Кбит/сек
    Каналы : 6 каналов
    Расположение каналов : Front: L C R, Side: L R, LFE
    Частота : 48,0 КГц
    Частота кадров : 31,250 кадров/сек (1536 spf)
    Битовая глубина : 16 бит
    Метод сжатия : С потерями
    Размер потока : 614 Мбайт (2%)
    Заголовок : Многоголосый закадровый, CP Digital
    Язык : Russian
    Default : Нет
    Forced : Нет
    Аудио #4
    Идентификатор : 5
    Формат : AC-3
    Формат/Информация : Audio Coding 3
    Расширение режима : CM (complete main)
    Параметр Endianness формата : Big
    Режим смешивания : Header stripping
    Идентификатор кодека : A_AC3
    Продолжительность : 2 ч. 14 м.
    Вид битрейта : Постоянный
    Битрейт : 640 Кбит/сек
    Каналы : 6 каналов
    Расположение каналов : Front: L C R, Side: L R, LFE
    Частота : 48,0 КГц
    Частота кадров : 31,250 кадров/сек (1536 spf)
    Битовая глубина : 16 бит
    Метод сжатия : С потерями
    Размер потока : 614 Мбайт (2%)
    Заголовок : Двухголосый закадровый, Tycoon
    Язык : Russian
    Default : Нет
    Forced : Нет
    Аудио #5
    Идентификатор : 6
    Формат : AC-3
    Формат/Информация : Audio Coding 3
    Расширение режима : CM (complete main)
    Параметр Endianness формата : Big
    Режим смешивания : Header stripping
    Идентификатор кодека : A_AC3
    Продолжительность : 2 ч. 14 м.
    Вид битрейта : Постоянный
    Битрейт : 640 Кбит/сек
    Каналы : 6 каналов
    Расположение каналов : Front: L C R, Side: L R, LFE
    Частота : 48,0 КГц
    Частота кадров : 31,250 кадров/сек (1536 spf)
    Битовая глубина : 16 бит
    Метод сжатия : С потерями
    Размер потока : 614 Мбайт (2%)
    Заголовок : Одноголосый закадровый, А. Гаврилов
    Язык : Russian
    Default : Нет
    Forced : Нет
    Аудио #6
    Идентификатор : 7
    Формат : AC-3
    Формат/Информация : Audio Coding 3
    Расширение режима : CM (complete main)
    Параметр Endianness формата : Big
    Режим смешивания : Header stripping
    Идентификатор кодека : A_AC3
    Продолжительность : 2 ч. 14 м.
    Вид битрейта : Постоянный
    Битрейт : 640 Кбит/сек
    Каналы : 6 каналов
    Расположение каналов : Front: L C R, Side: L R, LFE
    Частота : 48,0 КГц
    Частота кадров : 31,250 кадров/сек (1536 spf)
    Битовая глубина : 16 бит
    Метод сжатия : С потерями
    Размер потока : 614 Мбайт (2%)
    Заголовок : Одноголосый закадровый, Ю.Живов
    Язык : Russian
    Default : Нет
    Forced : Нет
    Аудио #7
    Идентификатор : 8
    Формат : AC-3
    Формат/Информация : Audio Coding 3
    Расширение режима : CM (complete main)
    Параметр Endianness формата : Big
    Режим смешивания : Header stripping
    Идентификатор кодека : A_AC3
    Продолжительность : 2 ч. 14 м.
    Вид битрейта : Постоянный
    Битрейт : 640 Кбит/сек
    Каналы : 6 каналов
    Расположение каналов : Front: L C R, Side: L R, LFE
    Частота : 48,0 КГц
    Частота кадров : 31,250 кадров/сек (1536 spf)
    Битовая глубина : 16 бит
    Метод сжатия : С потерями
    Размер потока : 614 Мбайт (2%)
    Заголовок : Одноголосый закадровый, Д.Пучков
    Язык : Russian
    Default : Нет
    Forced : Нет
    Аудио #8
    Идентификатор : 9
    Формат : AC-3
    Формат/Информация : Audio Coding 3
    Расширение режима : CM (complete main)
    Параметр Endianness формата : Big
    Режим смешивания : Header stripping
    Идентификатор кодека : A_AC3
    Продолжительность : 2 ч. 14 м.
    Вид битрейта : Постоянный
    Битрейт : 640 Кбит/сек
    Каналы : 6 каналов
    Расположение каналов : Front: L C R, Side: L R, LFE
    Частота : 48,0 КГц
    Частота кадров : 31,250 кадров/сек (1536 spf)
    Битовая глубина : 16 бит
    Метод сжатия : С потерями
    Размер потока : 614 Мбайт (2%)
    Заголовок : Оригинал
    Язык : English
    Default : Нет
    Forced : Нет
    Текст #1
    Идентификатор : 10
    Формат : UTF-8
    Идентификатор кодека : S_TEXT/UTF8
    Идентификатор кодека/Информация : UTF-8 Plain Text
    Заголовок : Tycoon
    Язык : Russian
    Default : Нет
    Forced : Нет
    Текст #2
    Идентификатор : 11
    Формат : UTF-8
    Идентификатор кодека : S_TEXT/UTF8
    Идентификатор кодека/Информация : UTF-8 Plain Text
    Заголовок : CP Digital
    Язык : Russian
    Default : Нет
    Forced : Нет
    Текст #3
    Идентификатор : 12
    Формат : UTF-8
    Идентификатор кодека : S_TEXT/UTF8
    Идентификатор кодека/Информация : UTF-8 Plain Text
    Заголовок : Киномания
    Язык : Russian
    Default : Нет
    Forced : Нет
    Текст #4
    Идентификатор : 13
    Формат : ASS
    Идентификатор кодека : S_TEXT/ASS
    Идентификатор кодека/Информация : Advanced Sub Station Alpha
    Метод сжатия : Без потерь
    Язык : English
    Default : Нет
    Forced : Нет
    Меню
    00:00:00.000 : en:The Necromongers
    00:02:39.326 : en:Hard Bounty
    00:07:05.508 : en:Back to Civilization
    00:11:25.643 : en:A Fighting Chance
    00:15:31.806 : en:A True Furyan
    00:20:58.757 : en:Attack of the Necromongers
    00:27:11.713 : en:Lensing & Cleansing
    00:31:27.302 : en:The Lord Marshal's Offer
    00:38:52.330 : en:Mind Regression
    00:43:32.568 : en:Caught
    00:47:18.419 : en:You Can Keep What You Kill
    00:53:38.340 : en:Welcome to Crematoria
    01:01:36.818 : en:Jack's Dead...
    01:04:29.824 : en:A Private War
    01:08:45.580 : en:Feeding Time
    01:11:43.174 : en:Two Killers
    01:17:19.051 : en:Good News & Bad News
    01:22:50.007 : en:Running the Surface
    01:29:05.131 : en:The Big Heat
    01:32:42.474 : en:The Better Killer
    01:41:13.651 : en:This Is Your Chance
    01:44:28.220 : en:What Are the Odds?
    01:48:15.197 : en:The Enemy Within
    01:53:18.583 : en:Convert or Fall
    01:57:02.682 : en:The Soul of a Furyan
    02:00:00.693 : en:Kill the Beast
    02:03:05.753 : en:At the Feet of an Outlaw
    02:04:08.066 : en:End Titles

    Риддик / Riddick (2013)

    Риддик / Riddick (2013)
    Год выпуска: 2013 г.
    Жанр: Фантастика, боевик
    Страна: США
    Режиссер: Дэвид Туи
    Продолжительность: 02:06:47
    Перевод: Дубляж, авторский
    В ролях:Вин Дизель, Хорди Молья, Мэттью Нэйбл, Кэти Сакхофф, Дэйв Батиста, Букем Вудбайн, Рауль Трухильо, Конрад Пла, Дэнни Бланко, Карл Урбан
    Описание: Преданный своими и брошенный умирать на пустынной планете, Риддик сражается с хищниками за жизнь и становится сильнее и опаснее себя прежнего. Открывшие на него охоту галактические наемники оказываются пешками в грандиозном плане отмщения. С врагами, возникающими на его пути тогда, когда это нужно самому Риддику, он начинает поход во имя мести.
    Формат видео: MKV
    Качество видео: BDRip 1080p | 60fps
    Видео кодек: H.264
    Аудио кодек: AC3
    Видео: 1920*800, 30,0 Мбит/сек, 59,940 кадров/сек
    Аудио 1: Русский, AC3, 6 ch, 384 Кбит/с Дубляж + DVO Paradox
    Аудио 2: Русский, AC3, 6 ch, 640 Кбит/с Одноголосый закадровый, А. Гаврилов
    Аудио 3: Русский, АС3, 6 ch, 640 Кбит/с Одноголосый закадровый, Л. Володарский
    Аудио 4: Русский, АС3, 6 ch, 640 Кбит/с Одноголосый закадровый, Д. Есарев
    Аудио 5: Английский, AC3, 6 ch, 640 Кбит/с Оригинал
    Субтитры: Русские, Английские
    Главы: Есть

    Отчёт MediaInfo

    Общее
    Уникальный идентификатор : 227661706502606718105663656012407153428 (0xAB460CBE034DD431A230E63F2358A314)
    Полное имя : D:\Movie\Риддик Трилогия\3 Риддик (2013).mkv
    Формат : Matroska
    Версия формата : Version 2
    Размер файла : 29,1 Гбайт
    Продолжительность : 2 ч. 6 м.
    Общий поток : 32,9 Мбит/сек
    Название фильма : Риддик (2013)
    Дата кодирования : UTC 2021-11-09 06:52:47
    Программа кодирования : mkvmerge v5.8.0 ('No Sleep / Pillow') built on Sep 2 2012 15:37:04
    Библиотека кодирования : libebml v1.2.3 + libmatroska v1.3.0
    Attachments : Poster.png
    Видео
    Идентификатор : 1
    Формат : AVC
    Формат/Информация : Advanced Video Codec
    Профиль формата : High@L4.1
    Параметр CABAC формата : Да
    Параметр ReFrames формата : 5 кадров
    Режим смешивания : Header stripping
    Идентификатор кодека : V_MPEG4/ISO/AVC
    Продолжительность : 2 ч. 6 м.
    Битрейт : 30,0 Мбит/сек
    Ширина : 1920 пикселей
    Высота : 800 пикселей
    Соотношение сторон : 2,40:1
    Режим частоты кадров : Постоянный
    Частота кадров : 59,940 (60000/1001) кадров/сек
    Цветовое пространство : YUV
    Субдискретизация насыщенности : 4:2:0
    Битовая глубина : 8 бит
    Тип развёртки : Прогрессивная
    Бит/(Пиксели*Кадры) : 0.326
    Размер потока : 26,0 Гбайт (89%)
    Библиотека кодирования : x264 core 146 r2538 121396c
    Настройки программы : cabac=1 / ref=5 / deblock=1:0:0 / analyse=0x3:0x113 / me=umh / subme=8 / psy=1 / psy_rd=1.00:0.25 / mixed_ref=1 / me_range=32 / chroma_me=1 / trellis=1 / 8x8dct=1 / cqm=0 / deadzone=6,6 / fast_pskip=1 / chroma_qp_offset=-4 / threads=12 / lookahead_threads=3 / sliced_threads=0 / nr=0 / decimate=0 / interlaced=0 / bluray_compat=0 / constrained_intra=0 / bframes=3 / b_pyramid=2 / b_adapt=2 / b_bias=0 / direct=3 / weightb=1 / open_gop=0 / weightp=2 / keyint=600 / keyint_min=60 / scenecut=40 / intra_refresh=0 / rc_lookahead=50 / rc=2pass / mbtree=1 / bitrate=30000 / ratetol=1.0 / qcomp=0.80 / qpmin=0 / qpmax=69 / qpstep=4 / cplxblur=20.0 / qblur=0.5 / vbv_maxrate=50000 / vbv_bufsize=50000 / nal_hrd=none / filler=0 / ip_ratio=1.10 / aq=1:0.50
    Язык : English
    Default : Да
    Forced : Нет
    Аудио #1
    Идентификатор : 2
    Формат : AC-3
    Формат/Информация : Audio Coding 3
    Расширение режима : CM (complete main)
    Параметр Endianness формата : Big
    Режим смешивания : Header stripping
    Идентификатор кодека : A_AC3
    Продолжительность : 2 ч. 6 м.
    Вид битрейта : Постоянный
    Битрейт : 384 Кбит/сек
    Каналы : 6 каналов
    Расположение каналов : Front: L C R, Side: L R, LFE
    Частота : 48,0 КГц
    Частота кадров : 31,250 кадров/сек (1536 spf)
    Битовая глубина : 16 бит
    Метод сжатия : С потерями
    Размер потока : 348 Мбайт (1%)
    Заголовок : Дубляж + DVO Paradox
    Язык : Russian
    Default : Да
    Forced : Нет
    Аудио #2
    Идентификатор : 3
    Формат : AC-3
    Формат/Информация : Audio Coding 3
    Расширение режима : CM (complete main)
    Параметр Endianness формата : Big
    Режим смешивания : Header stripping
    Идентификатор кодека : A_AC3
    Продолжительность : 2 ч. 6 м.
    Вид битрейта : Постоянный
    Битрейт : 640 Кбит/сек
    Каналы : 6 каналов
    Расположение каналов : Front: L C R, Side: L R, LFE
    Частота : 48,0 КГц
    Частота кадров : 31,250 кадров/сек (1536 spf)
    Битовая глубина : 16 бит
    Метод сжатия : С потерями
    Размер потока : 580 Мбайт (2%)
    Заголовок : Одноголосый закадровый, А. Гаврилов
    Язык : Russian
    Default : Нет
    Forced : Нет
    Аудио #3
    Идентификатор : 4
    Формат : AC-3
    Формат/Информация : Audio Coding 3
    Расширение режима : CM (complete main)
    Параметр Endianness формата : Big
    Режим смешивания : Header stripping
    Идентификатор кодека : A_AC3
    Продолжительность : 2 ч. 6 м.
    Вид битрейта : Постоянный
    Битрейт : 640 Кбит/сек
    Каналы : 6 каналов
    Расположение каналов : Front: L C R, Side: L R, LFE
    Частота : 48,0 КГц
    Частота кадров : 31,250 кадров/сек (1536 spf)
    Битовая глубина : 16 бит
    Метод сжатия : С потерями
    Размер потока : 580 Мбайт (2%)
    Заголовок : Одноголосый закадровый, Л. Володарский
    Язык : Russian
    Default : Нет
    Forced : Нет
    Аудио #4
    Идентификатор : 5
    Формат : AC-3
    Формат/Информация : Audio Coding 3
    Расширение режима : CM (complete main)
    Параметр Endianness формата : Big
    Режим смешивания : Header stripping
    Идентификатор кодека : A_AC3
    Продолжительность : 2 ч. 6 м.
    Вид битрейта : Постоянный
    Битрейт : 640 Кбит/сек
    Каналы : 6 каналов
    Расположение каналов : Front: L C R, Side: L R, LFE
    Частота : 48,0 КГц
    Частота кадров : 31,250 кадров/сек (1536 spf)
    Битовая глубина : 16 бит
    Метод сжатия : С потерями
    Размер потока : 580 Мбайт (2%)
    Заголовок : Одноголосый закадровый, Д. Есарев
    Язык : Russian
    Default : Нет
    Forced : Нет
    Аудио #5
    Идентификатор : 6
    Формат : AC-3
    Формат/Информация : Audio Coding 3
    Расширение режима : CM (complete main)
    Параметр Endianness формата : Big
    Режим смешивания : Header stripping
    Идентификатор кодека : A_AC3
    Продолжительность : 2 ч. 6 м.
    Вид битрейта : Постоянный
    Битрейт : 640 Кбит/сек
    Каналы : 6 каналов
    Расположение каналов : Front: L C R, Side: L R, LFE
    Частота : 48,0 КГц
    Частота кадров : 31,250 кадров/сек (1536 spf)
    Битовая глубина : 16 бит
    Метод сжатия : С потерями
    Размер потока : 580 Мбайт (2%)
    Заголовок : Оригинал
    Язык : English
    Default : Нет
    Forced : Нет
    Текст #1
    Идентификатор : 7
    Формат : UTF-8
    Идентификатор кодека : S_TEXT/UTF8
    Идентификатор кодека/Информация : UTF-8 Plain Text
    Заголовок : forced
    Язык : Russian
    Default : Да
    Forced : Нет
    Текст #2
    Идентификатор : 8
    Формат : UTF-8
    Идентификатор кодека : S_TEXT/UTF8
    Идентификатор кодека/Информация : UTF-8 Plain Text
    Заголовок : voronine
    Язык : Russian
    Default : Нет
    Forced : Нет
    Текст #3
    Идентификатор : 9
    Формат : UTF-8
    Идентификатор кодека : S_TEXT/UTF8
    Идентификатор кодека/Информация : UTF-8 Plain Text
    Язык : English
    Default : Нет
    Forced : Нет
    Меню
    00:00:00.000 : en:The Necromongers
    00:05:35.418 : en:Hard Bounty
    00:12:10.521 : en:Back to Civilization
    00:23:27.364 : en:A Fighting Chance
    00:27:56.425 : en:A True Furyan
    00:32:11.221 : en:Attack of the Necromongers
    00:38:03.698 : en:Lensing & Cleansing
    00:44:20.283 : en:The Lord Marshal's Offer
    00:48:40.876 : en:Mind Regression
    00:56:19.668 : en:Caught
    01:01:16.673 : en:You Can Keep What You Kill
    01:07:35.093 : en:Welcome to Crematoria
    01:15:23.436 : en:Jack's Dead...
    01:19:58.836 : en:A Private War
    01:26:51.832 : en:Feeding Time
    01:31:27.107 : en:Two Killers
    01:39:32.717 : en:Good News & Bad News
    01:45:32.701 : en:Running the Surface
    01:53:45.652 : en:The Big Heat
    02:02:56.160 : en:The Better Killer
    02:06:47.391 : en:End Titles

    Release was prepared by 60-fps.org



You cannot post new topics in this forum
You cannot reply to topics in this forum
You cannot edit your posts in this forum
You cannot delete your posts in this forum
You cannot vote in polls in this forum
You cannot attach files in this forum
You cannot download files in this forum