Taylor Swift - …Ready For It? (2017) WEBRip 1080p | 60 fps Luis Fonsi - Despacito ft. Daddy Yankee (2017) WEBRip 1080p | 60 fps Dan Balan - Chica Bomb (2010) WEBRip 1080p | 60 fps Serebro - В Космосе (2017) Full HD 1080p | 60 fps Shakira - Chantaje ft. Maluma (2016) Full HD 1080p | 60 fps Britney Spears - Toxic (2004) HDTVRip 1080p | 60 fps Serebro - Пройдёт (Mood Video) (2017) Full HD 1080p | 60 fps Katy Perry - Bon Appétit ft. Migos (2017) Full HD 1080p | 60 fps
  1. Стаж:
    3 года 6 месяцев
    Сообщений:
    2288
    Пол:
    Мужской
    -Ricky Martin feat. Wisin & Jennifer Lopez - Adrenalina (2014) Full HD 1080p | 60 fps- -Информация о Клипе
    Исполнитель: Ricky Martin feat. Wisin & Jennifer Lopez
    Название: Adrenalina
    Год выхода: 2014
    Продолжительность:00:04:46-Файл
    Кодек: MPEG4/ISO/AVC/ H.264
    Формат: MKV
    Качество: MasterRip 1080p
    Видео: 1920 x 1008 (1.905) at at 59.940 fps 29.5 Мбит/сек
    Аудио 1: AC-3 | 640 Кбит/сек | 48.0 KHz | 2.0 channels
    Аудио 2: DTS | 1413 Кбит/сек | 48.0 KHz | 2.0 channels

    MI

    Видео
    Идентификатор : 1
    Формат : AVC
    Формат/Информация : Advanced Video Codec
    Профиль формата : Main@L4.2
    Параметр CABAC формата : Да
    Параметр ReFrames формата : 3 кадра
    Параметр GOP формата : M=4, N=59
    Идентификатор кодека : V_MPEG4/ISO/AVC
    Продолжительность : 4 м. 45 с.
    Битрейт : 29,5 Мбит/сек
    Ширина : 1920 пикселей
    Высота : 1008 пикселей
    Соотношение сторон : 1,905
    Режим частоты кадров : Постоянный
    Частота кадров : 59,880 кадров/сек
    Частота кадров в оригинале : 59,940 кадров/сек
    Стандарт вещания : PAL
    Цветовое пространство : YUV
    Субдискретизация насыщенности : 4:2:0
    Битовая глубина : 8 бит
    Тип развёртки : Прогрессивная
    Бит/(Пиксели*Кадры) : 0.255
    Размер потока : 1006 Мбайт (92%)
    Заголовок : www.60-fps.org
    Язык : English
    Default : Да
    Forced : Нет
    Основные цвета : BT.709
    Характеристики трансфера : BT.709
    Коэффициенты матрицы : BT.709
    colour_range : Limited
    Аудио #1
    Идентификатор : 2
    Формат : AC-3
    Формат/Информация : Audio Coding 3
    Расширение режима : CM (complete main)
    Параметр Endianness формата : Big
    Идентификатор кодека : A_AC3
    Продолжительность : 4 м. 45 с.
    Вид битрейта : Постоянный
    Битрейт : 640 Кбит/сек
    Каналы : 2 канала
    Расположение каналов : Front: L R
    Частота : 48,0 КГц
    Битовая глубина : 16 бит
    Метод сжатия : С потерями
    Размер потока : 21,8 Мбайт (2%)
    Заголовок : AC3
    Язык : English
    Default : Да
    Forced : Нет
    DURATION : 00:04:45.664000000
    NUMBER_OF_FRAMES : 26781
    NUMBER_OF_BYTES : 50455404
    _STATISTICS_WRITING_APP : mkvmerge v7.6.0 ('Garden of Dreams') 32bit built on Feb 8 2015 12:51:39
    _STATISTICS_WRITING_DATE_UTC : 2015-06-20 20:26:33
    _STATISTICS_TAGS : BPS DURATION NUMBER_OF_FRAMES NUMBER_OF_BYTES
    Аудио #2
    Идентификатор : 3
    Формат : DTS
    Формат/Информация : Digital Theater Systems
    Режим : 16
    Параметр Endianness формата : Big
    Идентификатор кодека : A_DTS
    Продолжительность : 4 м. 45 с.
    Вид битрейта : Постоянный
    Битрейт : 1413 Кбит/сек
    Каналы : 2 канала
    Расположение каналов : Front: L R
    Частота : 48,0 КГц
    Битовая глубина : 16 бит
    Метод сжатия : С потерями
    Задержка видео : 83 мс.
    Размер потока : 48,1 Мбайт (4%)
    Заголовок : DTS
    Язык : English
    Default : Нет
    Forced : Нет
  2. Стаж:
    1 год 5 месяцев
    Сообщений:
    4
    Пол:
    Не указан
    Seeed please Плачу
    08-Ноя-2016 21:40 (спустя 1 год 4 месяца)
  3. Стаж:
    8 месяцев 1 день
    Сообщений:
    1
    Пол:
    Не указан
    Seeed please!!! Плачу
    24-Авг-2017 20:54 (спустя 9 месяцев 15 дней)


Вы не можете начинать темы
Вы не можете отвечать на сообщения
Вы не можете редактировать свои сообщения
Вы не можете удалять свои сообщения
Вы не можете голосовать в опросах
Вы не можете прикреплять файлы к сообщениям
Вы не можете скачивать файлы