Тор: Рагнарёк / Thor: Ragnarok (2017) BDRip 1080p | 60 fps Мстители: Эра Альтрона / Avengers: Age of Ultron (2015) BDRip 1080p | 60 fps Стражи Галактики. Часть 2 / Guardians of the Galaxy Vol. 2 (2017) BDRip 1080p | 60 fps Доктор Стрэндж / Doctor Strange (2016) BDRip 1080p | 60 fps Первый мститель: Противостояние / Captain America: Civil War (2016) BDRip 1080p | 60 fps Мстители / The Avengers (2012) BDRip 720p | 60 fps Человек-паук: Возвращение домой / Spider-Man: Homecoming (2017) BDRip 1080p | 60 fps Дэдпул / Deadpool (2016) BDRip 1080p | 60 fps
  1. Стаж:
    2 года
    Сообщений:
    578
    Пол:
    Мужской
    Фильм «Ураганный беспредел продолжается» Фильм- Информация
    Название: Рейд: Пуля в голове
    Оригинальное название: Headshot
    Год выхода: 2016
    Жанр: боевик, триллер, драма
    Режиссер: Кимо Стамбол, Тимо Тьяджанто
    Сценарий: Тимо Тьяджанто
    Продюсер: Синдзиро Нисимура, Вики В. Олиндо, Майк Уилуэн
    В ролях: Ико Уайс,Челси Ислан,Санни Пан,Вери Три Юлисман,Джулия Эстелл,Арио Баю,Яю А.В. Унру,Ганиндра Бимо,Эги Федли,Хироки Гото
    --Сюжет:
    Из неприступной тюрьмы, оставив за спиной десятки трупов, бежит приговоренный к смерти наркобарон, босс преступного мира Ли по прозвищу Отец из ада. Многие годы он похищал младенцев, воспитывая из них неуловимых, безжалостных и всесильных убийц. Его «дети» рабски преданы ему и готовы выполнить любой приказ. Когда на берегу моря находят едва живого парня с пулей в голове, не помнящего, кто он и откуда, — такой приказ и поступает. Израненный и страдающий амнезией Измаил не должен выйти из больницы. Выжить и вернуть себе память — для этого ему придется отправить на тот свет армию убийц, которые, когда-то были его «семьей».-- Страна: Индонезия
    Продолжительность: 01:58:18

    Файл
    Кодек: MPEG4/ISO/AVC H.264/High@L4.1
    Формат: MKV
    Качество: BDRip 1080p | 60 fps
    Видео: 1920 x 800 (2.400) | 59.940 fps | 15,0 Мбит/сек
    Аудио 1: AC-3| 5.1 | 48 kHz | 384 Кбит/сек | 16 bit | Дубляж
    Аудио 2: DTS-HD MA| 5.1 | 48 kHz | 3505 Кбит/сек / 1509 Кбит/сек | 24 bit | Оригинал - Индонезия
    Субтитры:

    MedifInfo

    Видео
    Идентификатор : 1
    Формат : AVC
    Формат/Информация : Advanced Video Codec
    Профиль формата : High@L4.1
    Параметр CABAC формата : Да
    Параметр ReFrames формата : 4 кадра
    Идентификатор кодека : V_MPEG4/ISO/AVC
    Продолжительность : 1 ч. 58 м.
    Битрейт : 15,0 Мбит/сек
    Ширина : 1920 пикселей
    Высота : 800 пикселей
    Соотношение сторон : 2,40:1
    Режим частоты кадров : Постоянный
    Частота кадров : 59,940 (60000/1001) кадров/сек
    Цветовое пространство : YUV
    Субдискретизация насыщенности : 4:2:0
    Битовая глубина : 8 бит
    Тип развёртки : Прогрессивная
    Бит/(Пиксели*Кадры) : 0.163
    Размер потока : 12,4 Гбайт (79%)
    Заголовок : Талямба: 60-fps.org
    Библиотека кодирования : x264 core 146 r2538 121396c
    Настройки программы : cabac=1 / ref=3 / deblock=1:-3:-3 / analyse=0x3:0x113 / me=hex / subme=7 / psy=1 / psy_rd=1.00:0.25 / mixed_ref=1 / me_range=16 / chroma_me=1 / trellis=1 / 8x8dct=1 / cqm=0 / deadzone=6,6 / fast_pskip=1 / chroma_qp_offset=-4 / threads=12 / lookahead_threads=2 / sliced_threads=0 / nr=0 / decimate=0 / interlaced=0 / bluray_compat=0 / constrained_intra=0 / bframes=3 / b_pyramid=2 / b_adapt=1 / b_bias=0 / direct=1 / weightb=1 / open_gop=0 / weightp=2 / keyint=599 / keyint_min=59 / scenecut=40 / intra_refresh=0 / rc_lookahead=40 / rc=2pass / mbtree=1 / bitrate=15000 / ratetol=1.0 / qcomp=0.80 / qpmin=0 / qpmax=69 / qpstep=4 / cplxblur=20.0 / qblur=0.5 / vbv_maxrate=50000 / vbv_bufsize=50000 / nal_hrd=none / filler=0 / ip_ratio=1.10 / aq=1:0.50
    Язык : English
    Default : Да
    Forced : Нет
    Аудио #1
    Идентификатор : 2
    Формат : AC-3
    Формат/Информация : Audio Coding 3
    Расширение режима : CM (complete main)
    Параметр Endianness формата : Big
    Идентификатор кодека : A_AC3
    Продолжительность : 1 ч. 58 м.
    Вид битрейта : Постоянный
    Битрейт : 384 Кбит/сек
    Каналы : 6 каналов
    Расположение каналов : Front: L C R, Side: L R, LFE
    Частота : 48,0 КГц
    Частота кадров : 31,250 кадров/сек (1536 spf)
    Битовая глубина : 16 бит
    Метод сжатия : С потерями
    Размер потока : 325 Мбайт (2%)
    Заголовок : Дубляж (R5)
    Язык : Russian
    Default : Да
    Forced : Нет
    Аудио #2
    Идентификатор : 3
    Формат : DTS
    Формат/Информация : Digital Theater Systems
    Профиль формата : MA / Core
    Режим : 16
    Параметр Endianness формата : Big
    Идентификатор кодека : A_DTS
    Продолжительность : 1 ч. 58 м.
    Вид битрейта : Переменный / Постоянный
    Битрейт : 3505 Кбит/сек / 1509 Кбит/сек
    Каналы : 6 каналов
    Расположение каналов : Front: L C R, Side: L R, LFE
    Частота : 48,0 КГц
    Частота кадров : 93,750 кадра/сек (512 spf)
    Битовая глубина : 24 бит
    Метод сжатия : Без потерь / Lossy
    Размер потока : 2,90 Гбайт (19%)
    Заголовок : Индонезийский
    Язык : Indonesian
    Default : Нет
    Forced : Нет
    Текст #1
    Идентификатор : 4
    Формат : UTF-8
    Идентификатор кодека : S_TEXT/UTF8
    Идентификатор кодека/Информация : UTF-8 Plain Text
    Продолжительность : 1 ч. 55 м.
    Битрейт : 25 бит/сек
    Count of elements : 597
    Размер потока : 21,4 Кбайт (0%)
    Заголовок : Full (R5)
    Язык : Russian
    Default : Нет
    Forced : Нет
    Текст #2
    Идентификатор : 5
    Формат : UTF-8
    Идентификатор кодека : S_TEXT/UTF8
    Идентификатор кодека/Информация : UTF-8 Plain Text
    Продолжительность : 1 ч. 53 м.
    Битрейт : 14 бит/сек
    Count of elements : 511
    Размер потока : 11,9 Кбайт (0%)
    Заголовок : Full
    Язык : English
    Default : Нет
    Forced : Нет
    Меню
    00:00:00.000 : en:Chapter 01
    00:08:30.760 : en:Chapter 02
    00:17:55.157 : en:Chapter 03
    00:30:08.598 : en:Chapter 04
    00:44:42.096 : en:Chapter 05
    00:53:31.625 : en:Chapter 06
    01:02:09.600 : en:Chapter 07
    01:13:48.340 : en:Chapter 08
    01:20:57.143 : en:Chapter 09
    01:34:25.368 : en:Chapter 10
    01:43:55.854 : en:Chapter 11
    01:54:38.955 : en:Chapter 12
  2. Стаж:
    1 год 1 месяц
    Сообщений:
    1
    Пол:
    Не указан
    очень маленькая скорость!
    11-Май-2018 20:48 (спустя 7 дней)
  3. Стаж:
    2 года
    Сообщений:
    578
    Пол:
    Мужской
    9743очень маленькая скорость!
    Так ты тоже не один,кто качает фильмы...
    У меня 15Тб. стоит сейчас на раздаче из них больше 700 фильмов раздаются,а скорость раздачи только 100Мб/с вот и считай сам,почему скорость не большая...
    но сколько я вижу- раздача почти 10Мб,а это не так уж и мало...,на ночь поставил и утром посмотришь..., а самое главное потом сам не сваливай с раздачи,а то умничать все могут,а постоят на раздачи не фига некого нет.
    11-Май-2018 23:25 (спустя 2 часа 36 минут)
  4. Стаж:
    9 месяцев 7 дней
    Сообщений:
    3
    Пол:
    Не указан
    9745
    9743очень маленькая скорость!
    Так ты тоже не один,кто качает фильмы...
    У меня 15Тб. стоит сейчас на раздаче из них больше 700 фильмов раздаются,а скорость раздачи только 100Мб/с вот и считай сам,почему скорость не большая...
    но сколько я вижу- раздача почти 10Мб,а это не так уж и мало...,на ночь поставил и утром посмотришь..., а самое главное потом сам не сваливай с раздачи,а то умничать все могут,а постоят на раздачи не фига некого нет.
    как стоять на раздаче? Просто открывать торрент приложение?
    27-Май-2018 13:14 (спустя 15 дней)
  5. Стаж:
    3 года 11 месяцев
    Сообщений:
    2404
    Пол:
    Мужской
    9831
    9745
    9743очень маленькая скорость!
    Так ты тоже не один,кто качает фильмы...
    У меня 15Тб. стоит сейчас на раздаче из них больше 700 фильмов раздаются,а скорость раздачи только 100Мб/с вот и считай сам,почему скорость не большая...
    но сколько я вижу- раздача почти 10Мб,а это не так уж и мало...,на ночь поставил и утром посмотришь..., а самое главное потом сам не сваливай с раздачи,а то умничать все могут,а постоят на раздачи не фига некого нет.
    как стоять на раздаче? Просто открывать торрент приложение?
    все верно ...
    27-Май-2018 13:22 (спустя 8 минут)


Вы не можете начинать темы
Вы не можете отвечать на сообщения
Вы не можете редактировать свои сообщения
Вы не можете удалять свои сообщения
Вы не можете голосовать в опросах
Вы не можете прикреплять файлы к сообщениям
Вы не можете скачивать файлы