Стражи Галактики. Часть 2 / Guardians of the Galaxy Vol. 2 (2017) BDRip 1080p | 60 fps Пираты Карибского моря: Мертвецы не рассказывают сказки / Pirates of the Caribbean: Dead Men Tell No Tales (2017) BDRip 1080p | 60 fps Человек-паук: Возвращение домой / Spider-Man: Homecoming (2017) BDRip 1080p | 60 fps Валериан и город тысячи планет / Valerian and the City of a Thousand Planets (2017) BDRip 1080p | 60 fps Мстители: Эра Альтрона / Avengers: Age of Ultron (2015) BDRip 1080p | 60 fps Тор: Рагнарёк / Thor: Ragnarok (2017) BDRip 1080p | 60 fps Тёмная башня / The Dark Tower (2017) BDRip 720p | 60 fps Форсаж 8 / The Fate of the Furious (2017) BDRip 1080p | 60 fps
  1. bot

    Стаж:
    3 года 6 месяцев
    Сообщений:
    410
    Пол:
    Не указан

    Рейд / The Raid (2011)

    «Спецназ против мафии. Брат против брата. 30 этажей ада»- Информация
    Название: Рейд
    Оригинальное название: The Raid
    Год выхода: 2011
    Жанр: боевик, триллер
    Режиссер: Гарет Эванс
    Сценарий: Гарет Эванс
    Продюсер: Арио Саганторо, Ранга Майя Барак-Эванс, Натаниель Болотин
    В ролях: Ико Ювайс, Джо Таслим, Дони Аламсях, Яян Рухьян, Пьер Грюно, Рэй Сахетапи, Тегар Сатрия, Ианг Дармаван, Эка «Пиранья» Рахмадия, Верди Солайман
    --Сюжет:

    Отряд спецназовцев получает задание проникнуть в многоэтажный дом, расположенный в самом сердце трущоб Джакарты, и арестовать обосновавшегося там наркобарона, которого охраняет целая армия вооруженных до зубов головорезов. Операцию нужно провести без лишнего шума, но нелепая случайность нарушает планы служителей закона. Теперь бойцам негде спрятаться и некуда бежать. Перед ними 30 этажей ада, где смертью грозит каждый неверный шаг. Война по правилам кончилась. Выживает сильнейший!
    - - Страна: Индонезия, Франция, США
    Продолжительность: 01:41:04

    Файл
    Кодек: MPEG4/ISO/AVC H.264
    Формат: MKV
    Качество: BDRip 1080p | 60 fps
    Видео: 1920x1080 (16:9) | 59.940 fps | 16.0 Мбит/сек
    Аудио 01: AC3 | 5.1 | 48 kHz | 640 kbps | 16 bit | Дубляж |
    Субтитры: русские (Полные)

    Audio отдельно

    Аудио 02: DTS | 5.1 | 48 kHz | 1510 kbps | 24 bit | Оригинал |

    MedifInfo

    Video
    ID : 1
    Format : AVC
    Format/Info : Advanced Video Codec
    Format profile : High@L4.2
    Format settings, CABAC : Yes
    Format settings, ReFrames : 3 frames
    Codec ID : V_MPEG4/ISO/AVC
    Duration : 1h 41mn
    Bit rate mode : Variable
    Bit rate : 16.1 Mbps
    Maximum bit rate : 18.0 Mbps
    Width : 1 920 pixels
    Height : 1 080 pixels
    Display aspect ratio : 16:9
    Frame rate : 60.000 fps
    Standard : NTSC
    Color space : YUV
    Chroma subsampling : 4:2:0
    Bit depth : 8 bits
    Scan type : Progressive
    Bits/(Pixel*Frame) : 0.129
    Stream size : 11.4 GiB (89%)
    Language : English
    Default : Yes
    Forced : No
    Color primaries : BT.709-5, BT.1361, IEC 61966-2-4, SMPTE RP177
    Transfer characteristics : BT.709-5, BT.1361
    Matrix coefficients : BT.709-5, BT.1361, IEC 61966-2-4 709, SMPTE RP177
    Audio
    ID : 2
    Format : DTS
    Format/Info : Digital Theater Systems
    Format profile : MA / Core
    Codec ID : A_DTS
    Duration : 1h 41mn
    Bit rate mode : Variable
    Bit rate : 1 561 Kbps / 1 510 Kbps
    Channel(s) : 6 channels
    Channel positions : Front: L C R, Side: L R, LFE
    Sampling rate : 48.0 KHz
    Bit depth : 16 bits
    Compression mode : Lossless / Lossy
    Title : Дубляж
    Language : Russian
    Default : Yes
    Forced : No
    Text
    ID : 3
    Format : UTF-8
    Codec ID : S_TEXT/UTF8
    Codec ID/Info : UTF-8 Plain Text
    Title : Полные
    Language : Russian
    Default : No
    Forced : No
    Menu
    00:00:00.000 : en:
    00:06:15.124 : en:
    00:12:36.380 : en:
    00:17:37.765 : en:
    00:22:45.696 : en:
    00:27:06.916 : en:
    00:32:45.880 : en:
    00:37:27.495 : en:
    00:42:37.888 : en:
    00:48:49.927 : en:
    00:55:16.104 : en:
    00:59:58.720 : en:
    01:05:15.828 : en:
    01:10:53.332 : en:
    01:16:29.167 : en:
    01:30:09.779 : en:

    Рейд 2 / The Raid 2: Berandal (2014)

    «Один против всех»- Информация
    Название: Рейд 2
    Оригинальное название: The Raid 2: Berandal
    Год выхода: 2014
    Жанр: Криминал, триллер, боевик
    Режиссер: Гарет Эванс
    Сценарий: Гарет Эванс
    Продюсер: Натаниель Болотин, Арио Саганторо, Арам Терцакян
    В ролях: Тио Пакусодево, Ока Антара, Дони Аламсях, Джули Эстелль, Яян Рухьян, Рюхэй Мацуда, Алекс Аббад, Арифин Путра, Сесеп Ариф Рахман, Ико Ювайс
    --Сюжет:

    Из трех полицейских, выбравшихся из кровавого ада первой части, в живых остается только офицер Рама. Уволившись из спецназа, он пробует начать жизнь заново, но вскоре прошлое жестко напоминает о себе — преступники убивают его брата. Чтобы отомстить, он внедряется в мощный криминальный синдикат, где быстро поднимается до самых вершин бандитской иерархии. Врагов здесь еще больше, и каждый неверный шаг может оказаться последним. Здесь нет ни близких, ни друзей, ни любви, ни тоски, ни жалости!
    - - Страна: Индонезия, США
    Продолжительность: 02:30:28

    Файл
    Кодек: MPEG4/ISO/AVC H.264
    Формат: MKV
    Качество: BDRip 1080p | 60 fps
    Видео: 1920x800 (2.40:1) | 59.940 fps | 12.5 Мбит/сек
    Аудио 01: AC3 | 5.1 | 48 kHz | 640 kbps | 16 bit | Дубляж |

    Audio отдельно

    Аудио 02: DTS | 5.1 | 48 kHz | 1510 kbps | 16 bit | (AVO) Ю. Сербин |
    Аудио 03: DTS | 5.1 | 48 kHz | 1510 kbps | 16 bit | (VO) А. Матвеев |
    Аудио 04: DTS | 5.1 | 48 kHz | 1510 kbps | 16 bit | (VO) Д. Есарев |
    Аудио 05: AC3 | 2.0 | 48 kHz | 192 kbps | 16 bit | Украинский (MVO) Многоголосый, закадровый |
    Аудио 06: DTS | 5.1 | 48 kHz | 1510 kbps | 16 bit | Eng |
    Аудио 07: DTS | 5.1 | 48 kHz | 1510 kbps | 16 bit | индонезийский |
    Аудио 08: AC3 | 2.0 | 48 kHz | 192 kbps | 16 bit | Commentary |
    Субтитры: русские (Полные), русские (Полные Матвеев (без цензуры)), английские (Полные v1), английские (Полные v2), английские (Полные SDH), английские (Полные SDH Colored), английские (Комментарии)

    MedifInfo

    Video
    ID : 1
    Format : AVC
    Format/Info : Advanced Video Codec
    Format profile : High@L4.2
    Format settings, CABAC : Yes
    Format settings, ReFrames : 3 frames
    Codec ID : V_MPEG4/ISO/AVC
    Duration : 2h 30mn
    Bit rate mode : Variable
    Bit rate : 12.6 Mbps
    Maximum bit rate : 14.0 Mbps
    Width : 1 920 pixels
    Height : 800 pixels
    Display aspect ratio : 2.40:1
    Frame rate : 60.000 fps
    Standard : NTSC
    Color space : YUV
    Chroma subsampling : 4:2:0
    Bit depth : 8 bits
    Scan type : Progressive
    Bits/(Pixel*Frame) : 0.136
    Stream size : 13.2 GiB (84%)
    Title : Tiberiumsun69
    Language : English
    Default : Yes
    Forced : No
    Color primaries : BT.709-5, BT.1361, IEC 61966-2-4, SMPTE RP177
    Transfer characteristics : BT.709-5, BT.1361
    Matrix coefficients : BT.709-5, BT.1361, IEC 61966-2-4 709, SMPTE RP177
    Audio
    ID : 2
    Format : DTS
    Format/Info : Digital Theater Systems
    Format profile : MA / Core
    Codec ID : A_DTS
    Duration : 2h 30mn
    Bit rate mode : Variable
    Bit rate : 2 035 Kbps / 1 510 Kbps
    Channel(s) : 6 channels
    Channel positions : Front: L C R, Side: L R, LFE
    Sampling rate : 48.0 KHz
    Bit depth : 16 bits
    Compression mode : Lossless / Lossy
    Title : Дубляж
    Language : Russian
    Default : Yes
    Forced : No
    Text #1
    ID : 3
    Format : UTF-8
    Codec ID : S_TEXT/UTF8
    Codec ID/Info : UTF-8 Plain Text
    Title : Полные
    Language : Russian
    Default : No
    Forced : No
    Text #2
    ID : 4
    Format : UTF-8
    Codec ID : S_TEXT/UTF8
    Codec ID/Info : UTF-8 Plain Text
    Title : Полные Матвеев (без цензуры)
    Language : Russian
    Default : No
    Forced : No
    Text #3
    ID : 5
    Format : UTF-8
    Codec ID : S_TEXT/UTF8
    Codec ID/Info : UTF-8 Plain Text
    Title : Полные v1
    Language : English
    Default : No
    Forced : No
    Text #4
    ID : 6
    Format : UTF-8
    Codec ID : S_TEXT/UTF8
    Codec ID/Info : UTF-8 Plain Text
    Title : Полные v2
    Language : English
    Default : No
    Forced : No
    Text #5
    ID : 7
    Format : UTF-8
    Codec ID : S_TEXT/UTF8
    Codec ID/Info : UTF-8 Plain Text
    Title : Полные SDH
    Language : English
    Default : No
    Forced : No
    Text #6
    ID : 8
    Format : UTF-8
    Codec ID : S_TEXT/UTF8
    Codec ID/Info : UTF-8 Plain Text
    Title : Полные SDH Colored
    Language : English
    Default : No
    Forced : No
    Text #7
    ID : 9
    Format : UTF-8
    Codec ID : S_TEXT/UTF8
    Codec ID/Info : UTF-8 Plain Text
    Title : Комментарии
    Language : English
    Default : No
    Forced : No
    Menu
    00:00:00.000 : :Chapter 01
    00:08:02.315 : :Chapter 02
    00:14:03.217 : :Chapter 03
    00:21:08.892 : :Chapter 04
    00:31:45.486 : :Chapter 05
    00:42:22.122 : :Chapter 06
    00:50:55.177 : :Chapter 07
    01:01:58.423 : :Chapter 08
    01:11:49.763 : :Chapter 09
    01:24:47.165 : :Chapter 10
    01:36:31.994 : :Chapter 11
    01:44:18.752 : :Chapter 12
    01:48:31.713 : :Chapter 13
    01:57:20.283 : :Chapter 14
    02:05:59.093 : :Chapter 15
    02:20:02.894 : :Chapter 16
  2. Стаж:
    1 год 5 месяцев
    Сообщений:
    1
    Пол:
    Мужской
    Встаньте на раздачу пожалуйста.


Вы не можете начинать темы
Вы не можете отвечать на сообщения
Вы не можете редактировать свои сообщения
Вы не можете удалять свои сообщения
Вы не можете голосовать в опросах
Вы не можете прикреплять файлы к сообщениям
Вы не можете скачивать файлы