Холодное сердце 2 / Frozen II (2019) BDRip 1080p | 60 fps Камуфляж и шпионаж / Spies in Disguise (2019) BDRip 1080p | 60 fps Семейка Аддамс / The Addams Family (2019) BDRip 1080p | 60 fps Человек-паук: Через вселенные / Spider-Man: Into the Spider-Verse (2018) BDRip 1080p | 60 fps Вперёд / Onward (2019) BDRip 1080p | 60 fps Акира / Akira (1988) BDRip 1080p | 60 fps ВАЛЛ·И / WALL-E (2008) BDRip-AVC | 60 fps Холодное сердце / Frozen (2013) BDRip-AVC | 60 fps
  1. Longevity:
    4 years 1 month
    Posts:
    1522
    Gender:
    Male
    Фильм «Get ready. Get set. Get nuts!» Фильм- Информация
    Название: Реальная белка 2
    Оригинальное название: The Nut Job 2: Nutty by Nature
    Год выхода: 2017
    Жанр: мультфильм, фэнтези, боевик, комедия, приключения, семейный
    Режиссер: Кэллан Брункер
    Сценарий: Боб Барлен, Кэллан Брункер, Скотт Байндли
    Продюсер: Боб Барлен, Ким Джон-су, Sunghwan Kim
    В ролях: Уилл Арнетт,Майя Рудольф,Бобби Каннавале,Бобби Мойнахан,Изабела Монер,Петер Стормаре,Габриэль Иглесиас,Джефф Данэм,Себастьян Манискалко,Кари Уолгрен
    --Сюжет:
    В продолжении веселых хвостатых приключений белке Злюку и его друзьям снова нужно действовать сообща. На сей раз — чтобы спасти свой дом: мэр города задумал вырубить их парк и построить на его месте бездушные аттракционы… К счастью, у Злюка и других любителей арахиса есть план, не последняя роль в котором отведена новым друзьям наших героев — белым мышам под предводительством мудрого мистера Фэнга.-- Страна: Корея Южная, Канада
    Продолжительность: 01:31:13

    Файл
    Кодек: MPEG4/ISO/AVC H.264/High@L4.1
    Формат: MKV
    Качество: BDRip 1080p | 60 fps
    Видео: 1920 x 1040 (1.846) | 59.940 fps | 20,0 Мбит/сек
    Аудио 1: AC-3| 5.1 | 48 kHz | 384 Кбит/сек | 16 bit | Профессиональный (дублированный)
    Аудио 2: DTS-HD MA| 5.1 | 48 kHz | 4024 Кбит/сек / 1509 Кбит/сек | 24 bit | Орегинал
    Субтитры:

    MedifInfo

    Видео
    Идентификатор : 1
    Формат : AVC
    Формат/Информация : Advanced Video Codec
    Профиль формата : High@L4.1
    Параметр CABAC формата : Да
    Параметр ReFrames формата : 4 кадра
    Идентификатор кодека : V_MPEG4/ISO/AVC
    Продолжительность : 1 ч. 31 м.
    Битрейт : 20,0 Мбит/сек
    Ширина : 1920 пикселей
    Высота : 1040 пикселей
    Соотношение сторон : 1,85:1
    Режим частоты кадров : Постоянный
    Частота кадров : 59,940 (60000/1001) кадров/сек
    Цветовое пространство : YUV
    Субдискретизация насыщенности : 4:2:0
    Битовая глубина : 8 бит
    Тип развёртки : Прогрессивная
    Бит/(Пиксели*Кадры) : 0.167
    Размер потока : 12,7 Гбайт (82%)
    Заголовок : Талямба: 60-fps.org
    Библиотека кодирования : x264 core 146 r2538 121396c
    Настройки программы : cabac=1 / ref=3 / deblock=1:-3:-3 / analyse=0x3:0x113 / me=hex / subme=7 / psy=1 / psy_rd=1.00:0.25 / mixed_ref=1 / me_range=16 / chroma_me=1 / trellis=1 / 8x8dct=1 / cqm=0 / deadzone=6,6 / fast_pskip=1 / chroma_qp_offset=-4 / threads=12 / lookahead_threads=2 / sliced_threads=0 / nr=0 / decimate=0 / interlaced=0 / bluray_compat=0 / constrained_intra=0 / bframes=3 / b_pyramid=2 / b_adapt=1 / b_bias=0 / direct=1 / weightb=1 / open_gop=0 / weightp=2 / keyint=599 / keyint_min=59 / scenecut=40 / intra_refresh=0 / rc_lookahead=40 / rc=2pass / mbtree=1 / bitrate=20000 / ratetol=1.0 / qcomp=0.80 / qpmin=0 / qpmax=69 / qpstep=4 / cplxblur=20.0 / qblur=0.5 / vbv_maxrate=50000 / vbv_bufsize=50000 / nal_hrd=none / filler=0 / ip_ratio=1.10 / aq=1:0.50
    Язык : English
    Default : Да
    Forced : Нет
    Аудио #1
    Идентификатор : 2
    Формат : AC-3
    Формат/Информация : Audio Coding 3
    Расширение режима : CM (complete main)
    Параметр Endianness формата : Big
    Идентификатор кодека : A_AC3
    Продолжительность : 1 ч. 31 м.
    Вид битрейта : Постоянный
    Битрейт : 384 Кбит/сек
    Каналы : 6 каналов
    Расположение каналов : Front: L C R, Side: L R, LFE
    Частота : 48,0 КГц
    Частота кадров : 31,250 кадров/сек (1536 spf)
    Битовая глубина : 16 бит
    Метод сжатия : С потерями
    Размер потока : 250 Мбайт (2%)
    Заголовок : Дубляж
    Язык : Russian
    Default : Да
    Forced : Нет
    Аудио #2
    Идентификатор : 3
    Формат : DTS
    Формат/Информация : Digital Theater Systems
    Профиль формата : MA / Core
    Режим : 16
    Параметр Endianness формата : Big
    Идентификатор кодека : A_DTS
    Продолжительность : 1 ч. 31 м.
    Вид битрейта : Переменный / Постоянный
    Битрейт : 4024 Кбит/сек / 1509 Кбит/сек
    Каналы : 6 каналов
    Расположение каналов : Front: L C R, Side: L R, LFE
    Частота : 48,0 КГц
    Частота кадров : 93,750 кадра/сек (512 spf)
    Битовая глубина : 24 бит
    Метод сжатия : Без потерь / Lossy
    Размер потока : 2,56 Гбайт (16%)
    Заголовок : Оригинал
    Язык : English
    Default : Нет
    Forced : Нет
    Текст
    Идентификатор : 4
    Формат : UTF-8
    Идентификатор кодека : S_TEXT/UTF8
    Идентификатор кодека/Информация : UTF-8 Plain Text
    Продолжительность : 1 ч. 29 м.
    Битрейт : 72 бит/сек
    Count of elements : 1765
    Размер потока : 47,8 Кбайт (0%)
    Язык : English
    Default : Нет
    Forced : Нет
    Меню
    00:00:00.000 : en:00:00:00.000
    00:03:50.313 : en:00:03:50.313
    00:08:22.043 : en:00:08:22.043
    00:11:13.715 : en:00:11:13.715
    00:15:12.036 : en:00:15:12.036
    00:21:43.636 : en:00:21:43.636
    00:26:14.114 : en:00:26:14.114
    00:29:11.833 : en:00:29:11.833
    00:34:00.789 : en:00:34:00.789
    00:37:21.364 : en:00:37:21.364
    00:42:34.510 : en:00:42:34.510
    00:48:18.896 : en:00:48:18.896
    00:52:09.043 : en:00:52:09.043
    00:55:53.725 : en:00:55:53.725
    01:02:19.069 : en:01:02:19.069
    01:05:39.352 : en:01:05:39.352
    01:08:30.648 : en:01:08:30.648
    01:13:08.092 : en:01:13:08.092
    01:18:30.039 : en:01:18:30.039
    01:21:07.529 : en:01:21:07.529
  2. Longevity:
    1 year 7 months
    Posts:
    9
    Gender:
    Male
    Скорости шеф!!!
    08-Mar-2019 00:17 (after 10 months 4 days)
  3. Longevity:
    1 year 10 months
    Posts:
    2
    Gender:
    Unknown
    Люди добрые, встаньте на раздачу, хоть кто нибудь!
    22-Mar-2019 21:48 (after 14 days)
  4. Longevity:
    4 months 7 days
    Posts:
    4
    Gender:
    Unknown
    no resources, i want to download it.
    25-Jul-2020 05:32 (after 1 year 4 months)
  5. Longevity:
    3 years 8 months
    Posts:
    24
    Gender:
    Male
    11750no resources, i want to download it.
    Download. I'm standing at the distribution.
    25-Jul-2020 20:18 (after 14 hours)


You cannot post new topics in this forum
You cannot reply to topics in this forum
You cannot edit your posts in this forum
You cannot delete your posts in this forum
You cannot vote in polls in this forum
You cannot attach files in this forum
You cannot download files in this forum