Агент Ева / Ava (2020) BDRip 1080p | 60 fps Пятый элемент / The Fifth Element (1997) BDRip 1080p | 60 fps Властелин колец: Трилогия / The Lord of the Rings: Trilogy (2001-2003) BDRip-AVC | Extended Cut | 60 fps Форпост / The Outpost (2020) BDRip 1080p | 60 fps Вивариум / Vivarium (2019) BDRip 720p | 60 fps Ультрафиолет / Ultraviolet (2006) BDRip 1080p | 60 fps Поезд смерти / D-Railed (2018) BDRip 1080p | 60 fps Охота / The Hunt (2020) BDRip 1080p | 60 fps
  1. Longevity:
    6 years 5 months
    Posts:
    2414
    Gender:
    Male
    «The cutest comedy import in a long time!!!»- Информация
    Название: Развод по-итальянски
    Оригинальное название: Divorzio all'italiana
    Год выхода: 1961
    Жанр: драма, мелодрама, комедия
    Режиссер: Пьетро Джерми
    Сценарий: Эннио Де Кончини, Пьетро Джерми, Альфредо Джаннетти
    Продюсер: Франко Кристальди
    В ролях: Марчелло Мастроянни, Даниэла Рокка, Стефания Сандрелли, Леопольдо Триесте, Одоардо Спадаро, Маргерита Джирелли, Анджела Кардиле, Ландо Будзанка, Пьетро Торди, Уго Торренте, Антонио Аккуа, Бьянка Кастаньетта, Джованни Фассиоло, Игнацио Роберто Дайдоне, Франческо Никастро, Эди Ногара, Ренато Пинчироли, Даниела Ильоцци, Лаура Томизелли, Саро Аркидьяконо, Ренцо Мариньяно
    --Сюжет:
    Фердинандо приличный семьянин, ему скоро 40 лет, их брак с Росалией длится уже 12 лет, и вроде бы всё идет своим чередом, но вот беда, он влюбляется в свою юную кузину Анжелу, и девушка отвечает ему взаимностью. Фердинандо решает расстаться с ненавистной — глупой женой, чтобы быть всегда вместе с Анжелой, но как это сделать? Развод в Италии практически невозможен. «Проще убить», — решает он и, разработав коварный план, герой начинает действовать.
    -Страна: Италия
    Продолжительность: 01:44:47

    Файл
    Кодек: MPEG4/ISO/AVC/H.264
    Формат: MKV
    Качество: BDRip 720p | 60 fps
    Видео: 1280 x 680 (1.882) | 60.000 fps | 10.5 Мбит/сек
    Аудио 1: AC3 | 2.0 | 48 kHz | 192 kbps | 16 bit | Советский дубляж |
    Аудио 2: AC3 | 2.0 | 48 kHz | 192 kbps | 16 bit | Профессиональный многоголосый |
    Аудио 3: AC3 | 5.1 | 48 kHz | 448 kbps | 16 bit | Итальянский |
    Субтитры: English

    MedifInfo

    Видео
    Идентификатор : 1
    Формат : AVC
    Формат/Информация : Advanced Video Codec
    Профиль формата : [email protected]
    Параметр CABAC формата : Да
    Параметр ReFrames формата : 5 кадров
    Идентификатор кодека : V_MPEG4/ISO/AVC
    Продолжительность : 1 ч. 44 м.
    Битрейт : 10,5 Мбит/сек
    Ширина : 1280 пикселей
    Высота : 680 пикселей
    Соотношение сторон : 1,882
    Режим частоты кадров : Постоянный
    Частота кадров : 60,000 кадров/сек
    Цветовое пространство : YUV
    Субдискретизация насыщенности : 4:2:0
    Битовая глубина : 8 бит
    Тип развёртки : Прогрессивная
    Бит/(Пиксели*Кадры) : 0.201
    Размер потока : 7,52 Гбайт (91%)
    Заголовок : www.60-fps.org
    Библиотека кодирования : x264 core 148 r2744 b97ae06
    Настройки программы : cabac=1 / ref=5 / deblock=1:-3:-3 / analyse=0x3:0x113 / me=umh / subme=8 / psy=1 / psy_rd=1.00:0.25 / mixed_ref=1 / me_range=32 / chroma_me=1 / trellis=1 / 8x8dct=1 / cqm=0 / deadzone=6,6 / fast_pskip=1 / chroma_qp_offset=-4 / threads=12 / lookahead_threads=2 / sliced_threads=0 / nr=0 / decimate=0 / interlaced=0 / bluray_compat=0 / constrained_intra=0 / bframes=3 / b_pyramid=2 / b_adapt=1 / b_bias=0 / direct=3 / weightb=1 / open_gop=0 / weightp=2 / keyint=600 / keyint_min=59 / scenecut=40 / intra_refresh=0 / rc_lookahead=50 / rc=2pass / mbtree=1 / bitrate=10499 / ratetol=1.0 / qcomp=0.80 / qpmin=0 / qpmax=69 / qpstep=4 / cplxblur=20.0 / qblur=0.5 / vbv_maxrate=62500 / vbv_bufsize=78125 / nal_hrd=none / filler=0 / ip_ratio=1.10 / aq=1:0.50
    Default : Да
    Forced : Нет
    Аудио #1
    Идентификатор : 2
    Формат : AC-3
    Формат/Информация : Audio Coding 3
    Расширение режима : CM (complete main)
    Параметр Endianness формата : Big
    Идентификатор кодека : A_AC3
    Продолжительность : 1 ч. 44 м.
    Вид битрейта : Постоянный
    Битрейт : 192 Кбит/сек
    Каналы : 2 канала
    Расположение каналов : Front: L R
    Частота : 48,0 КГц
    Битовая глубина : 16 бит
    Метод сжатия : С потерями
    Размер потока : 144 Мбайт (2%)
    Заголовок : DUB - Советский
    Язык : Russian
    Default : Да
    Forced : Нет
    Аудио #2
    Идентификатор : 3
    Формат : AC-3
    Формат/Информация : Audio Coding 3
    Расширение режима : CM (complete main)
    Параметр Endianness формата : Big
    Идентификатор кодека : A_AC3
    Продолжительность : 1 ч. 44 м.
    Вид битрейта : Постоянный
    Битрейт : 192 Кбит/сек
    Каналы : 2 канала
    Расположение каналов : Front: L R
    Частота : 48,0 КГц
    Битовая глубина : 16 бит
    Метод сжатия : С потерями
    Размер потока : 144 Мбайт (2%)
    Заголовок : MVO
    Язык : Russian
    Default : Нет
    Forced : Нет
    Аудио #3
    Идентификатор : 4
    Формат : AC-3
    Формат/Информация : Audio Coding 3
    Расширение режима : CM (complete main)
    Параметр Endianness формата : Big
    Идентификатор кодека : A_AC3
    Продолжительность : 1 ч. 44 м.
    Вид битрейта : Постоянный
    Битрейт : 448 Кбит/сек
    Каналы : 6 каналов
    Расположение каналов : Front: L C R, Side: L R, LFE
    Частота : 48,0 КГц
    Битовая глубина : 16 бит
    Метод сжатия : С потерями
    Размер потока : 336 Мбайт (4%)
    Заголовок : Original
    Язык : Italian
    Default : Нет
    Forced : Нет
    Текст
    Идентификатор : 5
    Формат : UTF-8
    Идентификатор кодека : S_TEXT/UTF8
    Идентификатор кодека/Информация : UTF-8 Plain Text
    Язык : English
    Default : Нет
    Forced : Нет
    Меню
    00:00:00.000 : en:
    00:06:55.250 : en:
    00:11:53.958 : en:
    00:18:09.916 : en:
    00:24:51.666 : en:
    00:31:10.458 : en:
    00:37:31.875 : en:
    00:42:20.208 : en:
    00:53:07.041 : en:
    00:57:44.166 : en:
    01:08:14.250 : en:
    01:16:53.416 : en:
    01:23:03.416 : en:
    01:29:31.416 : en:
    01:33:51.125 : en:
    01:36:40.125 : en:
    01:39:30.708 : en:
    01:41:51.416 : en:

    Release was prepared by 60-fps.org



You cannot post new topics in this forum
You cannot reply to topics in this forum
You cannot edit your posts in this forum
You cannot delete your posts in this forum
You cannot vote in polls in this forum
You cannot attach files in this forum
You cannot download files in this forum