[Цитировать]
Kryl

«LIFE: Some Disassembly Required»- Информация
Название: Разрушение
Оригинальное название: Demolition
Год выхода: 2015
Жанр: Драма
Режиссер: Жан-Марк Валле
Сценарий: Брайан Сайп
Продюсер: Лайан Халфон, Сидни Киммел, Тэд Лакинбилл
В ролях: Джейк Джилленхол, Наоми Уоттс, Крис Купер, Джуда Льюис, С.Дж. Уилсон, Полли Дрэйпер, Мэлаки Клири, Дебра Монк, Хезер Линд, Уасс М. Стивенс
--Сюжет:
Когда Дэвис узнал, что его жена умерла, он захотел купить шоколадные конфеты в торговом автомате, но пачка застряла. Пытаясь выяснить, почему он ничего не чувствует по поводу смерти жены, Дэвис начинает писать длинные письма в обслуживающую торговые автоматы фирму. А в письмах он рассказывает о себе и об отношениях с погибшей женой. Скоро ему отвечает Карен, менеджер компании. Попутно Дэвис понимает, что ему совершенно необходимо разобрать холодильник, разломать кабинку туалета, рабочий компьютер и разрушить собственный дом.- Страна: США
Продолжительность: 01:41:25

Файл
Кодек: MPEG4/ISO/AVC H.264
Формат: MKV
Качество: BDRip 720p | 60 fps
Видео: 1280 x 544 (2.353) | 59.940 fps | 10.0 Мбит/сек
Аудио 1: AC3 | 5.1 | 48 kHz | 384 kbps | 16 bit | Дубляж iTunes |
Аудио 2: AC3 | 5.1 | 48 kHz | 384 kbps | 16 bit | Любительский многоголосый (закадровый) - СПД |
Аудио 3: AC3 | 5.1 | 48 kHz | 384 kbps | 16 bit | ENG |
Субтитры: English

MedifInfo

Видео
Идентификатор : 1
Формат : AVC
Формат/Информация : Advanced Video Codec
Профиль формата : High@L4.1
Параметр CABAC формата : Да
Параметр ReFrames формата : 3 кадра
Идентификатор кодека : V_MPEG4/ISO/AVC
Продолжительность : 1 ч. 40 м.
Вид битрейта : Переменный
Битрейт : 9581 Кбит/сек
Максимальный битрейт : 10000 Кбит/сек
Ширина : 1280 пикселей
Высота : 544 пикселя
Соотношение сторон : 2,35:1
Режим частоты кадров : Постоянный
Частота кадров : 59,880 кадров/сек
Частота кадров в оригинале : 59,940 кадров/сек
Стандарт вещания : PAL
Цветовое пространство : YUV
Субдискретизация насыщенности : 4:2:0
Битовая глубина : 8 бит
Тип развёртки : Прогрессивная
Бит/(Пиксели*Кадры) : 0.230
Размер потока : 6,75 Гбайт (87%)
Заголовок : www.60-fps.org
Язык : English
Default : Да
Forced : Нет
Основные цвета : BT.601 NTSC
Характеристики трансфера : BT.601
Коэффициенты матрицы : BT.601
colour_range : Limited
DURATION : 01:40:53.024000000
NUMBER_OF_FRAMES : 189158
NUMBER_OF_BYTES : 290546688
_STATISTICS_WRITING_APP : mkvmerge v7.6.0 ('Garden of Dreams') 32bit built on Feb 8 2015 12:51:39
_STATISTICS_WRITING_DATE_UTC : 2016-07-19 06:04:39
_STATISTICS_TAGS : BPS DURATION NUMBER_OF_FRAMES NUMBER_OF_BYTES
Аудио #1
Идентификатор : 2
Формат : AC-3
Формат/Информация : Audio Coding 3
Расширение режима : CM (complete main)
Параметр Endianness формата : Big
Идентификатор кодека : A_AC3
Продолжительность : 1 ч. 40 м.
Вид битрейта : Постоянный
Битрейт : 384 Кбит/сек
Каналы : 6 каналов
Расположение каналов : Front: L C R, Side: L R, LFE
Частота : 48,0 КГц
Битовая глубина : 16 бит
Метод сжатия : С потерями
Размер потока : 277 Мбайт (4%)
Заголовок : Дубляж - iTunes
Язык : Russian
Default : Да
Forced : Нет
Аудио #2
Идентификатор : 3
Формат : AC-3
Формат/Информация : Audio Coding 3
Расширение режима : CM (complete main)
Параметр Endianness формата : Big
Идентификатор кодека : A_AC3
Продолжительность : 1 ч. 40 м.
Вид битрейта : Постоянный
Битрейт : 384 Кбит/сек
Каналы : 6 каналов
Расположение каналов : Front: L C R, Side: L R, LFE
Частота : 48,0 КГц
Битовая глубина : 16 бит
Метод сжатия : С потерями
Размер потока : 277 Мбайт (4%)
Заголовок : MVO - СПД
Язык : Russian
Default : Нет
Forced : Нет
Аудио #3
Идентификатор : 4
Формат : AC-3
Формат/Информация : Audio Coding 3
Расширение режима : CM (complete main)
Параметр Endianness формата : Big
Идентификатор кодека : A_AC3
Продолжительность : 1 ч. 40 м.
Вид битрейта : Постоянный
Битрейт : 384 Кбит/сек
Каналы : 6 каналов
Расположение каналов : Front: L C R, Side: L R, LFE
Частота : 48,0 КГц
Битовая глубина : 16 бит
Метод сжатия : С потерями
Размер потока : 277 Мбайт (4%)
Заголовок : Eng
Язык : English
Default : Нет
Forced : Нет
Текст #1
Идентификатор : 5
Формат : UTF-8
Идентификатор кодека : S_TEXT/UTF8
Идентификатор кодека/Информация : UTF-8 Plain Text
Заголовок : Full
Язык : English
Default : Нет
Forced : Нет
Текст #2
Идентификатор : 6
Формат : UTF-8
Идентификатор кодека : S_TEXT/UTF8
Идентификатор кодека/Информация : UTF-8 Plain Text
Заголовок : SDH
Язык : English
Default : Нет
Forced : Нет
Меню
00:00:00.000 : en:00:00:00.000
00:03:09.815 : en:00:03:09.815
00:07:28.281 : en:00:07:28.281
00:11:11.671 : en:00:11:11.671
00:15:55.997 : en:00:15:55.997
00:19:23.037 : en:00:19:23.037
00:23:14.768 : en:00:23:14.768
00:28:21.325 : en:00:28:21.325
00:32:39.040 : en:00:32:39.040
00:37:16.693 : en:00:37:16.693
00:42:31.382 : en:00:42:31.382
00:47:09.952 : en:00:47:09.952
00:51:39.805 : en:00:51:39.805
00:56:23.005 : en:00:56:23.005
01:00:27.290 : en:01:00:27.290
01:04:41.878 : en:01:04:41.878
01:09:10.188 : en:01:09:10.188
01:14:08.444 : en:01:14:08.444
01:18:14.523 : en:01:18:14.523
01:22:22.354 : en:01:22:22.354
01:26:28.475 : en:01:26:28.475
01:29:15.475 : en:01:29:15.475
01:33:43.618 : en:01:33:43.618
01:36:41.838 : en:01:36:41.838

Релиз подготовлен 60 - fps

Топик был перенесен из форума Новинки Кино 60 FPS в форум Зарубежные фильмы 60 FPS
Kryl

[Цитировать]
ENIGMA

Большое Спасибо! Овации

[Цитировать]
Kryl

ENIGMA, Пожалуйста.
 
Показать сообщения:    

Текущее время: 05-Дек 05:25

Часовой пояс: UTC + 3


Вы не можете начинать темы
Вы не можете отвечать на сообщения
Вы не можете редактировать свои сообщения
Вы не можете удалять свои сообщения
Вы не можете голосовать в опросах
Вы не можете прикреплять файлы к сообщениям
Вы не можете скачивать файлы