[Цитировать]
mimok

Разлом Сан-Андреас / San Andreas (2015) BDRip 720p | 48fps«A rescue pilot survived an earthquake, this is what happens next»- Информация о фильме
Название: Разлом Сан-Андреас
Оригинальное название: San Andreas
Год выхода: 2015
Жанр: Боевик, триллер, драма
Режиссер: Брэд Пейтон
Продюсер: Бо Флинн, Брюс Берман, Ричард Бренер
В ролях: Дуэйн Джонсон, Карла Гуджино, Александра Даддарио, Йоан Гриффит, Арчи Панджаби, Пол Джаматти, Хьюго Джонстон-Барт, Арт Паркинсон, Уилл Юн Ли, Кайли Миноуг
Описание фильма:
Рэй — пилот спасательного вертолета, который всю свою жизнь помогал другим людям. За все время работы он насмотрелся на множество жутких вещей и не раз оказывался в очень сложных ситуациях. Несмотря на все преграды он спешил на помощь, даже не предполагая, что самое страшное ждет его впереди.
На Калифорнию обрушивается мощное землетрясение, в результате которого гибнут сотни людей и образовывается огромная трещина в земле. Во всеобщем хаосе Рэю предстоит отыскать свою дочь, но сделать это будет очень непросто. В надежде, что его ребенок все еще жив, он отправляется в смертельно опасное путешествие через весь штат…
Страна: США, Австралия, Канада
Студия: Warner Bros. Pictures, Village Roadshow Pictures, New Line Cinema
Продолжительность: 01:54:28
Перевод: Дублированный (Лицензия)
Субтитры: Вшитые, отключаемые
Язык субтитров: Русский (Full), Английский (Full)

Дата мировой премьеры: 21 мая 2015
Дата российской премьеры: 28 мая 2015, «Каро-Премьер»
Дата выхода DVD/Blu-Ray релиза: 8 октября 2015, «CP Дистрибуция»
Файл
Формат: MKV
Кодек: MPEG-4 AVC/H.264
Качество: BDRip 720p
Видео: ~ 8704 Кбит/сек, 1280 x 544, 47.952 кадров/сек
Аудио: AC3 5.1, 48.0 KHz, 448 Кбит/сек - Русский

MediaInfo

Общее
Уникальный идентификатор : 199063946403960741413100371778309569652 (0x95C2524F50435115A5DEE8AFA911BC74)
Полное имя : D:\Торренты\San Andreas 48fps.mkv
Формат : Matroska
Версия формата : Version 2
Размер файла : 7,47 Гбайт
Продолжительность : 1 ч. 54 м.
Общий поток : 9338 Кбит/сек
Название фильма : San Andreas (2015) Blu-ray 2D Disc [EUR]
Дата кодирования : UTC 2015-09-29 17:23:22
Программа кодирования : mkvmerge v6.9.1 ('Blue Panther') 64bit built on Apr 18 2014 18:23:38
Библиотека кодирования : libebml v1.3.0 + libmatroska v1.4.1
Видео
Идентификатор : 1
Формат : AVC
Формат/Информация : Advanced Video Codec
Профиль формата : High@L4.1
Параметр CABAC формата : Да
Параметр ReFrames формата : 6 кадров
Идентификатор кодека : V_MPEG4/ISO/AVC
Продолжительность : 1 ч. 54 м.
Битрейт : 8704 Кбит/сек
Ширина : 1280 пикселей
Высота : 544 пикселя
Соотношение сторон : 2,35:1
Режим частоты кадров : Постоянный
Частота кадров : 47,952 кадров/сек
Цветовое пространство : YUV
Субдискретизация насыщенности : 4:2:0
Битовая глубина : 8 бит
Тип развёртки : Прогрессивная
Бит/(Пиксели*Кадры) : 0.261
Размер потока : 6,96 Гбайт (93%)
Заголовок : Release by mimok
Библиотека кодирования : x264 core 130 r2273 b3065e6
Настройки программы : cabac=1 / ref=6 / deblock=1:0:0 / analyse=0x3:0x133 / me=umh / subme=8 / psy=1 / psy_rd=1.00:0.15 / mixed_ref=1 / me_range=20 / chroma_me=1 / trellis=2 / 8x8dct=1 / cqm=0 / deadzone=21,11 / fast_pskip=0 / chroma_qp_offset=-3 / threads=6 / lookahead_threads=2 / sliced_threads=0 / nr=0 / decimate=0 / interlaced=0 / bluray_compat=0 / constrained_intra=0 / bframes=8 / b_pyramid=2 / b_adapt=2 / b_bias=0 / direct=1 / weightb=1 / open_gop=0 / weightp=2 / keyint=250 / keyint_min=25 / scenecut=40 / intra_refresh=0 / rc=crf / mbtree=0 / crf=18.0 / qcomp=0.63 / qpmin=10 / qpmax=51 / qpstep=4 / ip_ratio=1.40 / pb_ratio=1.30 / aq=1:1.20
Default : Да
Forced : Нет
Аудио
Идентификатор : 2
Формат : AC-3
Формат/Информация : Audio Coding 3
Расширение режима : CM (complete main)
Параметр Endianness формата : Big
Идентификатор кодека : A_AC3
Продолжительность : 1 ч. 54 м.
Вид битрейта : Постоянный
Битрейт : 448 Кбит/сек
Каналы : 6 каналов
Расположение каналов : Front: L C R, Side: L R, LFE
Частота : 48,0 КГц
Битовая глубина : 16 бит
Метод сжатия : С потерями
Размер потока : 367 Мбайт (5%)
Заголовок : dub
Язык : Russian
Default : Да
Forced : Нет
Текст #1
Идентификатор : 3
Формат : UTF-8
Идентификатор кодека : S_TEXT/UTF8
Идентификатор кодека/Информация : UTF-8 Plain Text
Заголовок : full
Язык : Russian
Default : Да
Forced : Нет
Текст #2
Идентификатор : 4
Формат : UTF-8
Идентификатор кодека : S_TEXT/UTF8
Идентификатор кодека/Информация : UTF-8 Plain Text
Заголовок : full
Язык : English
Default : Нет
Forced : Нет

Скринлист

Скриншоты:

Релиз подготовлен 60 - fps

[Цитировать]
HANNIBAL_68

Норм фильм

[Цитировать]
ENIGMA

Спасибо Большое :)

[Цитировать]
Tranch

Вот круто, что на Безумный Макс: Дорога ярости, что на Разлом Сан-Андреас в кино ходил почти в одно время Улыбаюсь. Очень приятно добавить в коллекцию для бесконечных пересмотров :D 3D у этого фильма, пожалуй, в летний период 2015-го было лучшим, из тех, что я видел Фильм
 
Показать сообщения:    

Текущее время: 23-Июл 21:34

Часовой пояс: UTC + 3


Вы не можете начинать темы
Вы не можете отвечать на сообщения
Вы не можете редактировать свои сообщения
Вы не можете удалять свои сообщения
Вы не можете голосовать в опросах
Вы не можете прикреплять файлы к сообщениям
Вы не можете скачивать файлы