Разборки в стиле Кунг-Фу / Kung-Fu-- Год выпуска: 2004 г.
Жанр: энтези, боевик, комедия, криминал
Страна: Гонконг, Китай
Режиссер: Стивен Чоу
Продолжительность: 01:39:25
Перевод: Профессиональный (многоголосый закадровый)--В ролях: Стивен Чоу, Фэн Сяоган, Юэнь Ва, Жи Хуа Донг, Квок-Куен Чан, Лам Чи Чунг, Сю-Люн Люн, Цю Юен, Кай Ман Тинь, Кенг Кси Джиа, Фунг Харк-Он, Шэн И Хуан, Сует Лам, Чеунг-Ян Юэнь, Чи Чи Линг, Ю Син, Чжан Ибай, Си Лу Рен, Сяо Ланг Динг, Минг Минг Чжан, Оливер Вонг, Кай Ши Чен, Уэллсон Чин, Вэнь Хуи Хе, Дэвид Хунг, Билли Ма, Хао Тиан Йуан, Мин Хун Фанг, Нан Ян, Чао Ксиа Лью--Описание: 30-е годы ХХ века — время господства на улицах Шанхая жестоких правил, установленных бандами, поделившими город на сферы влияния. Группировка, носящая название Топоры, наводит страх на мирных жителей и вдохновляет на подвиги юных подражателей.
Однажды один из таких не в меру горячих юношей устраивает настоящий погром в трущобах на окраине города, выдавая себя при этом за одного из Топоров. Это становится причиной для начала войны между настоящими участниками банды и обитателями местных домов, которые в совершенстве владеют приемами кунг-фу…--Формат видео: MKV
Качество видео: BDRip 1080p | 60fps
Видео кодек: H.264
Аудио кодек: AC3
Видео: 1920x800 (2.40:1), 59.940 fps, AVC, 5 507 Kbps
Аудио: AC3, 448 Kbps, 48.0 KHz, 6 ch-- --Релиз by:

Отчёт MediaInfo

General
Complete name : Разборки в стиле Кунг-фу.mkv
Format : Matroska
File size : 4.13 GiB
Duration : 1h 39mn
Overall bit rate : 5 950 Kbps
Encoded date : UTC 2015-06-07 13:13:37
Writing application : mkvmerge v7.0.0 ('Where We Going') 64bit built on Jun 9 2014 15:16:27
Writing library : libebml v1.3.0 + libmatroska v1.4.1
Video
ID : 1
Format : AVC
Format/Info : Advanced Video Codec
Format profile : High@L4.1
Format settings, CABAC : Yes
Format settings, ReFrames : 4 frames
Muxing mode : Container profile=Unknown@4.1
Codec ID : V_MPEG4/ISO/AVC
Duration : 1h 39mn
Bit rate : 5 507 Kbps
Width : 1 920 pixels
Height : 800 pixels
Display aspect ratio : 2.40:1
Frame rate : 59.940 fps
Color space : YUV
Chroma subsampling : 4:2:0
Bit depth : 8 bits
Scan type : Progressive
Bits/(Pixel*Frame) : 0.060
Stream size : 3.74 GiB (90%)
Writing library : x264 core 146 r2538 121396c
Encoding settings : cabac=1 / ref=4 / deblock=1:0:0 / analyse=0x3:0 / me=umh / subme=11 / psy=1 / psy_rd=1.00:0.10 / mixed_ref=1 / me_range=42 / chroma_me=0 / trellis=2 / 8x8dct=1 / cqm=0 / deadzone=21,11 / fast_pskip=0 / chroma_qp_offset=-3 / threads=12 / lookahead_threads=1 / sliced_threads=0 / nr=0 / decimate=0 / interlaced=0 / bluray_compat=0 / constrained_intra=0 / bframes=5 / b_pyramid=2 / b_adapt=2 / b_bias=0 / direct=3 / weightb=1 / open_gop=0 / weightp=2 / keyint=250 / keyint_min=25 / scenecut=40 / intra_refresh=0 / rc=2pass / mbtree=0 / bitrate=5507 / ratetol=1.0 / qcomp=0.60 / qpmin=0 / qpmax=69 / qpstep=4 / cplxblur=20.0 / qblur=0.5 / ip_ratio=1.40 / pb_ratio=1.30 / aq=1:0.90
Audio
ID : 2
Format : AC-3
Format/Info : Audio Coding 3
Mode extension : CM (complete main)
Codec ID : A_AC3
Duration : 1h 39mn
Bit rate mode : Constant
Bit rate : 448 Kbps
Channel(s) : 6 channels
Channel positions : Front: L C R, Side: L R, LFE
Sampling rate : 48.0 KHz
Bit depth : 16 bits
Stream size : 319 MiB (8%)
Title : Russian AC3 448 Kbps Mnogogolos
Language : Russian

[Цитировать]
samrik

Где все? Нет никого на раздаче!

[Цитировать]
BOT2

Вчера 2-ое скачало и свалило с раздачи, молодцы что сказать!!! Вот и делай людям добро после этого

[Цитировать]
Mazer_Kazan

Ура-а-а-а, огромное спасибо. Сейчас только увидел)))
С уважением, я.

[Цитировать]
Syrax

блин классные фильмы выкладывают...но вот вопрос нужны ли они мне в цивфровом и лучшем формате если они уже и так есть на DVD
 
Показать сообщения:    

Текущее время: 08-Дек 09:00

Часовой пояс: UTC + 3


Вы не можете начинать темы
Вы не можете отвечать на сообщения
Вы не можете редактировать свои сообщения
Вы не можете удалять свои сообщения
Вы не можете голосовать в опросах
Вы не можете прикреплять файлы к сообщениям
Вы не можете скачивать файлы