[Цитировать]
mimok

Разборка в Бронксе / Rumble in the Bronx (1995) BDRip 720p | 60fps«Нет страха. Нет равных»- Информация о фильме
Название: Разборка в Бронксе
Оригинальное название: Rumble in the Bronx
Год выхода: 1995
Жанр: Боевик, триллер, комедия, криминал
Режиссер: Стэнли Тонг
Продюсер: Барби Танг, Рэймонд Чоу, Роберта Чоу
Актёры: Джеки Чан, Анита Муи, Франсуаза Йип, Билл Тун, Марк Экерстрим, Гарвин Кросс, Морган Лам, Эйлен Сит, Чан Ман Чинг, Фред Андруччи
Описание фильма:
Кеунг, полицейский из Гонконга, приезжает к своему дяде в Америку на свадьбу. Дядя как раз продал свой супермаркет красивой китаянке, ни слова не сказав новой хозяйке о том, что на магазин имеют виды бандиты, и уехал. Кеунг, конечно же, заступается за симпатичную бизнес-леди и устраивает рэкетирам разборку. Но на этом подвиги азиатского полицейского в нью-йоркских кварталах не заканчиваются! Кеунг начинает жесткое противостояние гангстерам в деле о пропаже бриллиантов…
Страна: Гонконг
Студия: Golden Harvest Company Ltd.
Продолжительность: 01:28:35
Перевод: Профессиональный (многоголосый, закадровый)
Субтитры: Отсутствуют

Файл
Формат: MKV
Кодек: MPEG-4 AVC/H.264
Качество: BDRip 720p
Видео: ~ 10.9 Мбит/сек, 1280 x 544, 59.940 кадров/сек
Аудио#1: Русский, AC3 5.1, 48.0 KHz, 640 Кбит/сек - Премьер-Видео
Аудио#2: Русский, AC3 5.1, 48.0 KHz, 384 Кбит/сек - Premier Digital

MediaInfo

Общее
Уникальный идентификатор : 245025371081231113885330249802912403365 (0xB8562B808835AA6EA2BBFE518E108FA5)
Полное имя : E:\Торренты\Rumble in the Bronx 60fps.mkv
Формат : Matroska
Версия формата : Version 4 / Version 2
Размер файла : 7,52 Гбайт
Продолжительность : 1 ч. 28 м.
Общий поток : 12,2 Мбит/сек
Название фильма : Rumble in the Bronx / Hong faan kui (1995) Blu-ray Disc -BLUEBIRD
Дата кодирования : UTC 2016-02-07 16:31:11
Программа кодирования : mkvmerge v6.9.1 ('Blue Panther') 64bit built on Apr 18 2014 18:23:38
Библиотека кодирования : libebml v1.3.0 + libmatroska v1.4.1
Видео
Идентификатор : 1
Формат : AVC
Формат/Информация : Advanced Video Codec
Профиль формата : High@L4.1
Параметр CABAC формата : Да
Параметр ReFrames формата : 6 кадров
Идентификатор кодека : V_MPEG4/ISO/AVC
Продолжительность : 1 ч. 28 м.
Битрейт : 10,9 Мбит/сек
Ширина : 1280 пикселей
Высота : 544 пикселя
Соотношение сторон : 2,35:1
Режим частоты кадров : Постоянный
Частота кадров : 59,940 (59940/1000) кадров/сек
Цветовое пространство : YUV
Субдискретизация насыщенности : 4:2:0
Битовая глубина : 8 бит
Тип развёртки : Прогрессивная
Бит/(Пиксели*Кадры) : 0.261
Размер потока : 6,74 Гбайт (90%)
Заголовок : Release by mimok
Библиотека кодирования : x264 core 130 r2273 b3065e6
Настройки программы : cabac=1 / ref=6 / deblock=1:0:0 / analyse=0x3:0x133 / me=umh / subme=8 / psy=1 / psy_rd=1.00:0.15 / mixed_ref=1 / me_range=20 / chroma_me=1 / trellis=2 / 8x8dct=1 / cqm=0 / deadzone=21,11 / fast_pskip=0 / chroma_qp_offset=-3 / threads=6 / lookahead_threads=2 / sliced_threads=0 / nr=0 / decimate=0 / interlaced=0 / bluray_compat=0 / constrained_intra=0 / bframes=8 / b_pyramid=2 / b_adapt=2 / b_bias=0 / direct=1 / weightb=1 / open_gop=0 / weightp=2 / keyint=250 / keyint_min=25 / scenecut=40 / intra_refresh=0 / rc=crf / mbtree=0 / crf=17.0 / qcomp=0.63 / qpmin=10 / qpmax=51 / qpstep=4 / ip_ratio=1.40 / pb_ratio=1.30 / aq=1:1.20
Default : Да
Forced : Нет
Аудио #1
Идентификатор : 2
Формат : AC-3
Формат/Информация : Audio Coding 3
Расширение режима : CM (complete main)
Параметр Endianness формата : Big
Идентификатор кодека : A_AC3
Продолжительность : 1 ч. 28 м.
Вид битрейта : Постоянный
Битрейт : 640 Кбит/сек
Каналы : 6 каналов
Расположение каналов : Front: L C R, Side: L R, LFE
Частота : 48,0 КГц
Частота кадров : 31,250 кадров/сек (1536 spf)
Метод сжатия : С потерями
Размер потока : 406 Мбайт (5%)
Заголовок : MVO Премьер-Видео
Язык : Russian
Default : Да
Forced : Нет
Аудио #2
Идентификатор : 3
Формат : AC-3
Формат/Информация : Audio Coding 3
Расширение режима : CM (complete main)
Параметр Endianness формата : Big
Идентификатор кодека : A_AC3
Продолжительность : 1 ч. 28 м.
Вид битрейта : Постоянный
Битрейт : 384 Кбит/сек
Каналы : 6 каналов
Расположение каналов : Front: L C R, Side: L R, LFE
Частота : 48,0 КГц
Частота кадров : 31,250 кадров/сек (1536 spf)
Метод сжатия : С потерями
Размер потока : 243 Мбайт (3%)
Заголовок : MVO Premier Digital
Язык : Russian
Default : Нет
Forced : Нет
Скриншоты:

Релиз подготовлен 60 - fps

[Цитировать]
bonus

Хороший фильм
 
Показать сообщения:    

Текущее время: 07-Дек 19:20

Часовой пояс: UTC + 3


Вы не можете начинать темы
Вы не можете отвечать на сообщения
Вы не можете редактировать свои сообщения
Вы не можете удалять свои сообщения
Вы не можете голосовать в опросах
Вы не можете прикреплять файлы к сообщениям
Вы не можете скачивать файлы