«Им здесь не место»-- Информация о фильме
Название: Район №9
Оригинальное название: District 9
Год выхода: 2009
Жанр: фантастика, боевик, триллер
Режиссер: Фрэнк Дарабонт
Сценарий: Нил Бломкамп, Тэрри Татчелл
В ролях: Шарлто Копли, Джейсон Коуп, Натали Болтт, Сильвен Страйк, Элизабет Мкандави, Джон Самнер, Уильям Аллен Янг, Грег Мелвилл-Смит, Ник Блейк, Морена Буса Сесатса
----О фильме:
Более 20 лет назад инопланетяне установили первый контакт с Землей. Люди были готовы ко всему - от враждебного вторжения до невероятного технологического прорыва. Ни того, ни другого не произошло. Пришельцы оказались беженцами со своей собственной планеты, и пока мировое сообщество решало, что с ними делать дальше, для них был организован временный лагерь в южноафриканском Районе N9.- - Страна: США, Новая Зеландия, Канада, ЮАР
Продолжительность: 01:52:15
--Файл
Кодек: MPEG4/ISO/AVC H.264
Формат: MKV
Качество: BDRip
Видео:
1920x1032 | 59.940 fps | 14311 Мбит/сек-- Аудио 1: AC3 | 5.1 | 48 kHz | 640 kbps | 16 bit |Дубляж|
Аудио 2: AC3 | 5.1| 48 kHz | 640 kbps | 16 bit |украинский|
Аудио 4: AC3 | 5.1 | 48 kHz | 640 kbps | 16 bit |английский|

MedifInfo

General
Unique ID : 189947664348953740889146756916912909695 (0x8EE696E7164073BD8406A846F6B0ED7F)
Название : A:1080p 60fps9 Район 1080p 60fps.mkv
Формат : Matroska
Формат version : Version 4 / Version 2
Размер файла : 13.0 GiB
Длительность : 1h 52mn
Общий Битрейт : 16.6 Mbps
Encoded date : UTC 2014-08-17 01:05:58
Создано приложением : mkvmerge v6.9.1 ('Blue Panther') 64bit built on Apr 18 2014 18:23:38
Writing library : libebml v1.3.0 + libmatroska v1.4.1
Attachment : Yes / Yes / Yes / Yes / Yes
Video
ID : 1
Формат : AVC
Формат/Info : Advanced Video Кодек
Формат profile : High@L4.1
Формат настройки, CABAC : Yes
Формат настройки, ReFrames : 4 frames
Кодек ID : V_MPEG4/ISO/AVC
Длительность : 1h 52mn
Битрейт : 14.3 Mbps
Width : 1 920 пикселей
Высота : 1 032 пикселей
Соотношение кадра : 1.860
Частота кадров : 59.940 fps
Цветопередача : YUV
Chroma subsampling : 4:2:0
Разрядность : 8 bits
Тип сканирования : Progressive
Bits/(Pixel*Frame) : 0.121
Размер потока : 11.2 GiB (86%)
Writing library : x264 core 130 r2273 b3065e6
Encoding настройки : cabac=1 / ref=4 / deblock=1:-1:-1 / analyse=0x3:0 / me=umh / subme=9 / psy=1 / psy_rd=1.00:0.10 / mixed_ref=1 / me_range=42 / chroma_me=0 / trellis=2 / 8x8dct=1 / cqm=0 / deadzone=21,11 / fast_pskip=0 / chroma_qp_offset=-3 / threads=12 / lookahead_threads=1 / sliced_threads=0 / nr=0 / decimate=0 / interlaced=0 / bluray_compat=0 / constrained_intra=0 / bframes=5 / b_pyramid=2 / b_adapt=2 / b_bias=0 / direct=1 / weightb=1 / open_gop=0 / weightp=2 / keyint=594 / keyint_min=59 / scenecut=40 / intra_refresh=0 / rc=crf / mbtree=0 / crf=16.0 / qcomp=0.60 / qpmin=0 / qpmax=69 / qpstep=4 / ip_ratio=1.40 / pb_ratio=1.30 / aq=0
Язык : English
Default : Yes
Forced : No
Audio #1
ID : 2
Формат : AC-3
Формат/Info : Audio Coding 3
Расширение режима : CM (complete main)
Кодек ID : A_AC3
Длительность : 1h 52mn
Битрейт mode : Constant
Битрейт : 640 Kbps
Каналы(s) : 6 каналов
Каналы positions : Front: L C R, Side: L R, LFE
Частота : 48.0 KHz
Разрядность : 16 bits
Режим сжатия : Lossy
Размер потока : 514 MiB (4%)
Title : Дубляж
Язык : Russian
Default : Yes
Forced : No
Audio #2
ID : 3
Формат : AC-3
Формат/Info : Audio Coding 3
Расширение режима : CM (complete main)
Кодек ID : A_AC3
Длительность : 1h 52mn
Битрейт mode : Constant
Битрейт : 640 Kbps
Каналы(s) : 6 каналов
Каналы positions : Front: L C R, Side: L R, LFE
Частота : 48.0 KHz
Разрядность : 16 bits
Режим сжатия : Lossy
Размер потока : 514 MiB (4%)
Title : Дубляж
Язык : Ukrainian
Default : No
Forced : No
Audio #3
ID : 4
Формат : AC-3
Формат/Info : Audio Coding 3
Расширение режима : CM (complete main)
Кодек ID : A_AC3
Длительность : 1h 52mn
Битрейт mode : Constant
Битрейт : 640 Kbps
Каналы(s) : 6 каналов
Каналы positions : Front: L C R, Side: L R, LFE
Частота : 48.0 KHz
Разрядность : 16 bits
Режим сжатия : Lossy
Размер потока : 514 MiB (4%)
Title : Original
Язык : English
Default : No
Forced : No
Text #1
ID : 5
Формат : UTF-8
Кодек ID : S_TEXT/UTF8
Кодек ID/Info : UTF-8 Plain Text
Title : Надписи и пр.
Язык : Russian
Default : Yes
Forced : No
Text #2
ID : 6
Формат : UTF-8
Кодек ID : S_TEXT/UTF8
Кодек ID/Info : UTF-8 Plain Text
Title : Полные
Язык : Russian
Default : No
Forced : No
Text #3
ID : 7
Формат : UTF-8
Кодек ID : S_TEXT/UTF8
Кодек ID/Info : UTF-8 Plain Text
Title : Надписи и пр.
Язык : Ukrainian
Default : No
Forced : No
Text #4
ID : 8
Формат : ASS
Кодек ID : S_TEXT/ASS
Кодек ID/Info : Advanced Sub Station Alpha
Режим сжатия : Lossless
Title : Forced
Язык : English
Default : No
Forced : No
Text #5
ID : 9
Формат : ASS
Кодек ID : S_TEXT/ASS
Кодек ID/Info : Advanced Sub Station Alpha
Режим сжатия : Lossless
Title : Full
Язык : English
Default : No
Forced : No
Menu
00:00:00.000 : en:Chapter 1
00:06:22.340 : en:Chapter 2
00:13:25.346 : en:Chapter 3
00:20:33.357 : en:Chapter 4
00:27:08.752 : en:Chapter 5
00:34:13.718 : en:Chapter 6
00:41:57.931 : en:Chapter 7
00:47:01.944 : en:Chapter 8
00:54:07.953 : en:Chapter 9
01:00:00.597 : en:Chapter 10
01:08:25.975 : en:Chapter 11
01:13:37.871 : en:Chapter 12
01:21:02.189 : en:Chapter 13
01:26:40.361 : en:Chapter 14
01:33:41.365 : en:Chapter 15
01:38:44.501 : en:Chapter 16
Просьба к переливающим на другие сайты, в оформлении указывайте пожалуйста авторство рипа - Tiberiumsun69

[Цитировать]
rembo1410

спасибо!заценю
 
Показать сообщения:    

Текущее время: 09-Дек 22:19

Часовой пояс: UTC + 3


Вы не можете начинать темы
Вы не можете отвечать на сообщения
Вы не можете редактировать свои сообщения
Вы не можете удалять свои сообщения
Вы не можете голосовать в опросах
Вы не можете прикреплять файлы к сообщениям
Вы не можете скачивать файлы