Rammstein (БЕЗ ЦЕНЗУРЫ)| WEBRip 1080p | 60 fps Britney Spears - Oops! I Did It Again Uncut (2009) HD 1080p | 60 fps Jennifer Lopez ft. Iggy Azalea - Booty (2014) Full HD 1080p | 60 fps Britney Spears - ...Baby One More Time (2009) Full HD 1080p | 60 fps BLACKPINK | WEBRip 1080p | 60 fps Sia - Chandelier (2014 ) Full HD 1080p | 60 fps Dan Balan - Chica Bomb (2010) WEBRip 1080p | 60 fps Lady Gaga - Poker Face (2009) Full HD 1080p | 60 fps
  1. Longevity:
    6 years 1 month
    Posts:
    2418
    Gender:
    Male
    --Rayhon - Izlama (2014) WEBRip 1080p | 60 fps --Информация о Клипе
    Исполнитель: Rayhon
    Название: Izlama
    Год выхода: 2014
    Продолжительность: 00:03:50-Файл
    Кодек: MPEG4/ISO/AVC/ H.264
    Формат: MKV
    Качество: WEBRip 1080p
    Видео: 1920 x 1012 (1.897) at 60.000 fps 5.0 mb/s
    Аудио 1: MP3 | 320 Кбит/сек | 2 канала, 44,1 КГц

    MI

    Видео
    Идентификатор : 1
    Формат : AVC
    Формат/Информация : Advanced Video Codec
    Профиль формата : High@L4.1
    Параметр CABAC формата : Да
    Параметр ReFrames формата : 4 кадра
    Идентификатор кодека : V_MPEG4/ISO/AVC
    Продолжительность : 3 м. 50 с.
    Битрейт : 4999 Кбит/сек
    Ширина : 1920 пикселей
    Высота : 1012 пикселей
    Соотношение сторон : 1,897
    Режим частоты кадров : Постоянный
    Частота кадров : 60,000 кадров/сек
    Цветовое пространство : YUV
    Субдискретизация насыщенности : 4:2:0
    Битовая глубина : 8 бит
    Тип развёртки : Прогрессивная
    Бит/(Пиксели*Кадры) : 0.043
    Размер потока : 134 Мбайт (92%)
    Заголовок : www.60-fps.org
    Библиотека кодирования : x264 core 129 r2245 bc13772
    Настройки программы : cabac=1 / ref=4 / deblock=1:-1:-1 / analyse=0x3:0x133 / me=esa / subme=9 / psy=1 / psy_rd=1.00:0.25 / mixed_ref=1 / me_range=32 / chroma_me=1 / trellis=2 / 8x8dct=1 / cqm=0 / deadzone=6,6 / fast_pskip=1 / chroma_qp_offset=-4 / threads=12 / lookahead_threads=2 / sliced_threads=0 / nr=0 / decimate=0 / interlaced=0 / bluray_compat=0 / constrained_intra=0 / bframes=3 / b_pyramid=2 / b_adapt=2 / b_bias=0 / direct=3 / weightb=1 / open_gop=0 / weightp=2 / keyint=600 / keyint_min=60 / scenecut=40 / intra_refresh=0 / rc_lookahead=60 / rc=2pass / mbtree=1 / bitrate=4999 / ratetol=1.0 / qcomp=0.80 / qpmin=0 / qpmax=69 / qpstep=4 / cplxblur=19.0 / qblur=0.0 / ip_ratio=1.10 / aq=1:0.50
    Язык : English
    Default : Нет
    Forced : Нет
    Аудио
    Идентификатор : 2
    Формат : MPEG Audio
    Версия формата : Version 1
    Профиль формата : Layer 3
    Режим : Joint stereo
    Идентификатор кодека : A_MPEG/L3
    Идентификатор кодека/Подсказка : MP3
    Продолжительность : 3 м. 50 с.
    Вид битрейта : Постоянный
    Битрейт : 320 Кбит/сек
    Каналы : 2 канала
    Частота : 44,1 КГц
    Метод сжатия : С потерями
    Размер потока : 8,79 Мбайт (6%)
    Заголовок : www.60-fps.org
    Библиотека кодирования : LAME3.99.5
    Default : Да
    Forced : Нет

    Release was prepared by 60 - fps

  2. Longevity:
    6 years 1 month
    Posts:
    111
    Gender:
    Male
    Это узбекская певица?
    15-Feb-2015 14:52 (after 2 days 2 hours)
  3. Longevity:
    6 years 1 month
    Posts:
    111
    Gender:
    Male
    То есть я имею ввиду она
    15-Feb-2015 14:53 (after 1 minute)
  4. Longevity:
    6 years 1 month
    Posts:
    310
    Gender:
    Male
    Тимур Артыков, она самая 36лет отроду
    15-Feb-2015 15:15 (after 21 minute)


You cannot post new topics in this forum
You cannot reply to topics in this forum
You cannot edit your posts in this forum
You cannot delete your posts in this forum
You cannot vote in polls in this forum
You cannot attach files in this forum
You cannot download files in this forum