[Цитировать]
Kryl

«В любви все равны»- Информация
Название: Равные
Оригинальное название: Equals
Год выхода: 2015
Жанр: Фантастика, драма, мелодрама
Режиссер: Дрейк Доримус
Сценарий: Нэйтан Паркер, Дрейк Доримус
Продюсер: Чип Диггинс, Майкл А. Прусс, Энн Рурк
В ролях: Николас Холт, Кристен Стюарт, Гай Пирс, Джеки Уивер, Тоби Хасс, Дэвид Шелби, Кейт Лин Шейл, Ребекка Хэзлвуд, Тео Ю, Аврора Периньо, Скотт Лоуренс, Бел Паули, Том Стоукс, Кай Леннокс, Су-хён
--Сюжет:
Фильм «Равные» рассказывает историю Сайласа, который живет в будущем, в обществе, названном «Коллектив». Жители этого современного мира — новое поколение людей, называемое «Равными». Равные — это мирные, спокойные, вежливые и справедливые люди, и жизнь в «Коллективе» идеальна. В нем не существует ни бедности, ни жадности, ни насилия, ни эмоций… Но над обществом нависает новая угроза: заболевание «SOS» или «Синдром Общественной Сознательности», жертвы которого подвергаются всему, чего, как они думали, избежали: депрессия, уязвимость, страх, любовь. Если правительство обнаружит человека, зараженного «SOS», его сразу же заберут в Нору, после чего этого человека уже никто и никогда не увидит.
Когда главный герой обнаруживает, что он тоже заражен, он становится изгоем, но замечает одного человека, который, как ему кажется, понимает, через что ему приходится проходить. В это время правительство заявляет о том, что лекарство от болезни «включенных эмоций» было найдено, и главные герои вынуждены искать способ выжить.
- Страна: США
Продолжительность: 01:42:12

Файл
Кодек: MPEG4/ISO/AVC H.264
Формат: MKV
Качество: BDRip 720p | 60 fps | US Transfer
Видео: 1280 x 694 (1.844) | 59.940 fps | 10.0 Мбит/сек
Аудио 1: AC-3 | 5.1 | 48 kHz | 640 kbps | 16 bit | Дубляж - Blu-ray |
Аудио 2: AC-3 | 5.1 | 48 kHz | 640 kbps | 16 bit | English |
Субтитры: Rus, Eng

MedifInfo

Видео
Идентификатор : 1
Формат : AVC
Формат/Информация : Advanced Video Codec
Профиль формата : High@L4.1
Параметр CABAC формата : Да
Параметр ReFrames формата : 3 кадра
Идентификатор кодека : V_MPEG4/ISO/AVC
Продолжительность : 1 ч. 42 м.
Вид битрейта : Переменный
Битрейт : 9457 Кбит/сек
Максимальный битрейт : 10000 Кбит/сек
Ширина : 1280 пикселей
Высота : 694 пикселя
Соотношение сторон : 1,85:1
Режим частоты кадров : Постоянный
Частота кадров : 59,880 кадров/сек
Частота кадров в оригинале : 59,940 кадров/сек
Стандарт вещания : PAL
Цветовое пространство : YUV
Субдискретизация насыщенности : 4:2:0
Битовая глубина : 8 бит
Тип развёртки : Прогрессивная
Бит/(Пиксели*Кадры) : 0.178
Размер потока : 6,75 Гбайт (86%)
Заголовок : www.60-fps.org
Язык : English
Default : Да
Forced : Нет
Основные цвета : BT.709
Характеристики трансфера : BT.709
Коэффициенты матрицы : BT.709
colour_range : Limited
Аудио #1
Идентификатор : 2
Формат : AC-3
Формат/Информация : Audio Coding 3
Расширение режима : CM (complete main)
Параметр Endianness формата : Big
Идентификатор кодека : A_AC3
Продолжительность : 1 ч. 42 м.
Вид битрейта : Постоянный
Битрейт : 640 Кбит/сек
Каналы : 6 каналов
Расположение каналов : Front: L C R, Side: L R, LFE
Частота : 48,0 КГц
Битовая глубина : 16 бит
Метод сжатия : С потерями
Размер потока : 468 Мбайт (6%)
Заголовок : Дубляж
Default : Да
Forced : Нет
Аудио #2
Идентификатор : 3
Формат : AC-3
Формат/Информация : Audio Coding 3
Расширение режима : CM (complete main)
Параметр Endianness формата : Big
Идентификатор кодека : A_AC3
Продолжительность : 1 ч. 42 м.
Вид битрейта : Постоянный
Битрейт : 640 Кбит/сек
Каналы : 6 каналов
Расположение каналов : Front: L C R, Side: L R, LFE
Частота : 48,0 КГц
Битовая глубина : 16 бит
Метод сжатия : С потерями
Размер потока : 468 Мбайт (6%)
Заголовок : Eng
Default : Нет
Forced : Нет
Текст #1
Идентификатор : 4
Формат : UTF-8
Идентификатор кодека : S_TEXT/UTF8
Идентификатор кодека/Информация : UTF-8 Plain Text
Язык : Russian
Default : Нет
Forced : Нет
Текст #2
Идентификатор : 5
Формат : UTF-8
Идентификатор кодека : S_TEXT/UTF8
Идентификатор кодека/Информация : UTF-8 Plain Text
Язык : English
Default : Нет
Forced : Нет
Меню
00:00:00.000 : :Chapter 01
00:07:24.860 : :Chapter 02
00:13:12.124 : :Chapter 03
00:20:12.752 : :Chapter 04
00:27:01.869 : :Chapter 05
00:36:32.105 : :Chapter 06
00:40:24.170 : :Chapter 07
00:44:55.024 : :Chapter 08
00:48:31.823 : :Chapter 09
00:56:15.203 : :Chapter 10
01:01:05.036 : :Chapter 11
01:09:11.145 : :Chapter 12
01:15:32.569 : :Chapter 13
01:21:38.560 : :Chapter 14
01:26:01.113 : :Chapter 15
01:29:53.887 : :Chapter 16
01:42:11.917 : :Chapter 17

Релиз подготовлен 60 - fps

Топик был перенесен из форума Новинки Кино 60 FPS в форум Зарубежные фильмы 60 FPS
Kryl
 
Показать сообщения:    

Текущее время: 06-Дек 15:12

Часовой пояс: UTC + 3


Вы не можете начинать темы
Вы не можете отвечать на сообщения
Вы не можете редактировать свои сообщения
Вы не можете удалять свои сообщения
Вы не можете голосовать в опросах
Вы не можете прикреплять файлы к сообщениям
Вы не можете скачивать файлы