[Цитировать]
Гость

-Название: Рататуй
Оригинальное название: Ratatouille
Год выпуска: 2007
Страна: США
Жанр: мультфильм, фэнтези, комедия, семейный
Продолжительность: 01:50:57
Перевод: Дубляж
Субтитры: русские (Форсированные), русские (Полные), английские (Полные)-Режиссер: Брэд Бёрд / Brad Bird, Ян Пинкава / Jan Pinkava-В ролях: Пэттон Освальт (Remy, озвучка), Иэн Холм (Skinner, озвучка), Лу Романо (Linguini, озвучка), Брайан Деннехи (Django, озвучка), Питер Сон (Emile, озвучка), Питер О’Тул (Anton Ego, озвучка), Брэд Гэррет (Gusteau, озвучка), Джанин Гарофало (Colette, озвучка), Уилл Арнетт (Horst, озвучка), Джулиус Каллахан (Lalo / Francois, озвучка), Джеймс Римар (Larousse, озвучка), Джон Ратценбергер (Mustafa, озвучка)-Описание:
Крыс Реми обладает уникальным вкусом. Он готов рисковать собственной жизнью, чтобы посмотреть любимое кулинарное шоу и раздобыть какую-нибудь приправку или просто свежий продукт. Реми живет со своими сородичами, которые его не понимают и не принимают его увлечения кулинарией. Когда Реми случайно попадает на кухню шикарного ресторана, он решает воспользоваться выпавшим ему шансом и проверить свои навыки.
На эту же кухню попадает и юный Лингвини. Всё, на что он может расчитывать - это должность уборщика. Но он тоже получает свой шанс...-Рейтинг

imdb.com: 8.00 (368 434)
MPAA: G - Нет возрастных ограничений-Автор рипа:Tiberiumsun69
-Качество: 3D BDRip 1080p / 60 FPS
Формат: MKV
Видео кодек: AVC
Аудио кодек:AC3
Видео: AVC, 1920x800 (2.40:1), 16000 kbps, 59,940 fps, 0,174 bpp
Аудио №1: русский / AC3 / 5.1 / 48 kHz / 640 kbps / 16 bit |Дубляж|
Аудио №2: английский / AC3 / 5.1 / 48 kHz / 640 kbps / 16 bit
Навигация по главам: есть- -

MI

General
Unique ID : 232434200829448196893250265304918345604 (0xAEDD32E1215869AB8A83BCB069974784)
Complete name : A:3DРататуй 3D 1080p 60fps.mkv
Format : Matroska
Format version : Version 4 / Version 2
File size : 13.4 GiB
Duration : 1h 50mn
Overall bit rate : 17.3 Mbps
Movie name : R.G HD-Films by Tiberiumsun69 60fps
Encoded date : UTC 2014-11-23 11:53:55
Writing application : mkvmerge v6.8.0 ('Theme for Great Cities') 64bit built on Mar 2 2014 21:34:26
Writing library : libebml v1.3.0 + libmatroska v1.4.1
Attachment : Yes
Video
ID : 1
Format : AVC
Format/Info : Advanced Video Codec
Format profile : High@L4.1
Format settings, CABAC : Yes
Format settings, ReFrames : 4 frames
Codec ID : V_MPEG4/ISO/AVC
Duration : 1h 50mn
Bit rate : 16.0 Mbps
Width : 1 920 pixels
Height : 800 pixels
Display aspect ratio : 2.40:1
Frame rate : 59.940 fps
Color space : YUV
Chroma subsampling : 4:2:0
Bit depth : 8 bits
Scan type : Progressive
Bits/(Pixel*Frame) : 0.174
Stream size : 12.1 GiB (91%)
Title : R.G HD-Films by Tiberiumsun69 60fps
Writing library : x264 core 130 r2273 b3065e6
Encoding settings : cabac=1 / ref=4 / deblock=1:-1:-1 / analyse=0x3:0 / me=umh / subme=9 / psy=1 / psy_rd=1.00:0.00 / mixed_ref=1 / me_range=44 / chroma_me=0 / trellis=2 / 8x8dct=1 / cqm=0 / deadzone=21,11 / fast_pskip=0 / chroma_qp_offset=-2 / threads=12 / lookahead_threads=1 / sliced_threads=0 / nr=0 / decimate=0 / interlaced=0 / bluray_compat=0 / constrained_intra=0 / bframes=5 / b_pyramid=2 / b_adapt=2 / b_bias=0 / direct=3 / weightb=1 / open_gop=0 / weightp=2 / keyint=250 / keyint_min=59 / scenecut=40 / intra_refresh=0 / rc_lookahead=60 / rc=2pass / mbtree=1 / bitrate=16000 / ratetol=1.0 / qcomp=0.80 / qpmin=0 / qpmax=69 / qpstep=4 / cplxblur=20.0 / qblur=0.5 / ip_ratio=1.40 / aq=1:0.80
Language : English
Default : Yes
Forced : No
Audio #1
ID : 2
Format : AC-3
Format/Info : Audio Coding 3
Mode extension : CM (complete main)
Codec ID : A_AC3
Duration : 1h 50mn
Bit rate mode : Constant
Bit rate : 640 Kbps
Channel(s) : 6 channels
Channel positions : Front: L C R, Side: L R, LFE
Sampling rate : 48.0 KHz
Bit depth : 16 bits
Compression mode : Lossy
Stream size : 508 MiB (4%)
Title : Дубляж
Language : Russian
Default : Yes
Forced : No
Audio #2
ID : 3
Format : AC-3
Format/Info : Audio Coding 3
Mode extension : CM (complete main)
Codec ID : A_AC3
Duration : 1h 50mn
Bit rate mode : Constant
Bit rate : 640 Kbps
Channel(s) : 6 channels
Channel positions : Front: L C R, Side: L R, LFE
Sampling rate : 48.0 KHz
Bit depth : 16 bits
Compression mode : Lossy
Stream size : 508 MiB (4%)
Title : Оригинал
Language : English
Default : No
Forced : No
Text #1
ID : 4
Format : UTF-8
Codec ID : S_TEXT/UTF8
Codec ID/Info : UTF-8 Plain Text
Title : Форсированные
Language : Russian
Default : Yes
Forced : No
Text #2
ID : 5
Format : UTF-8
Codec ID : S_TEXT/UTF8
Codec ID/Info : UTF-8 Plain Text
Title : Полные
Language : Russian
Default : No
Forced : No
Text #3
ID : 6
Format : UTF-8
Codec ID : S_TEXT/UTF8
Codec ID/Info : UTF-8 Plain Text
Title : Полные
Language : English
Default : No
Forced : No
Menu
00:00:00.000 : :1
00:01:15.242 : :2
00:06:28.471 : :3
00:09:21.936 : :4
00:10:57.115 : :5
00:13:30.017 : :6
00:17:39.058 : :7
00:19:36.592 : :8
00:24:47.361 : :9
00:28:54.274 : :10
00:33:04.107 : :11
00:38:12.457 : :12
00:40:32.180 : :13
00:44:10.272 : :14
00:46:58.357 : :15
00:51:26.708 : :16
00:57:01.209 : :17
00:59:31.359 : :18
01:00:52.565 : :19
01:07:18.785 : :20
01:11:24.697 : :21
01:15:27.272 : :22
01:19:24.134 : :23
01:23:29.171 : :24
01:25:33.503 : :25
01:28:17.375 : :26
01:32:38.052 : :27
01:35:40.484 : :28
01:38:48.756 : :29
01:40:53.714 : :30
01:42:58.005 : :31

Скриншоты

Просьба к переливающим на другие сайты, в оформлении указывайте пожалуйста авторство рипа - Tiberiumsun69
 
Показать сообщения:    

Текущее время: 05-Дек 01:21

Часовой пояс: UTC + 3


Вы не можете начинать темы
Вы не можете отвечать на сообщения
Вы не можете редактировать свои сообщения
Вы не можете удалять свои сообщения
Вы не можете голосовать в опросах
Вы не можете прикреплять файлы к сообщениям
Вы не можете скачивать файлы