[Цитировать]
Kryl

«Calculate your choices»- Информация
Название: Расплата
Оригинальное название: The Accountant
Год выхода: 2016
Жанр: Боевик, триллер, драма, криминал
Режиссер: Гэвин О’Коннор
Сценарий: Билл Дюбюк
Продюсер: Марти П. Юинг, Стивен Мнучин, Гэвин О’Коннор
В ролях: Бен Аффлек, Анна Кендрик, Дж.К. Симмонс, Джон Бернтал, Джеффри Тэмбор, Синтия Аддай-Робинсон, Джон Литгоу, Джин Смарт, Энди Умбергер, Элисон Райт
--Сюжет:
Лента расскажет историю математического гения Кристиана Вульфа, который подрабатывает аудитором для самых опасных преступных организаций. Когда ему на хвост садится отдел по борьбе с преступностью Министерства финансов во главе с Рэем Кингом, Кристиан решает найти себе законопослушного клиента и проводит аудит в компании по производству новейшей робототехники, где сотрудница финансового отдела обнаружила «нестыковочку» в миллионы долларов. Но стоит Кристиану взяться за счета и выйти на след, как в деле начинают появляться жертвы.- Страна: США
Продолжительность: 02:07:54

Файл
Кодек: MPEG4/ISO/AVC/H.264
Формат: MKV
Качество: BDRip 720p | 60 fps
Видео: 1280 x 534 (2.397) | 59.940 fps | 8.0 Мбит/сек
Аудио 1: AC3 | 5.1 | 48 kHz | 384 kbps | 16 bit | Дубляж - iTunes |
Аудио 2: AC3 | 5.1 | 48 kHz | 640 kbps | 16 bit | ENG |
Субтитры: Русские (full, forced), Eng

MedifInfo

Видео
Идентификатор : 1
Формат : AVC
Формат/Информация : Advanced Video Codec
Профиль формата : High@L4.1
Параметр CABAC формата : Да
Параметр ReFrames формата : 3 кадра
Параметр GOP формата : M=3, N=72
Идентификатор кодека : V_MPEG4/ISO/AVC
Продолжительность : 2 ч. 7 м.
Вид битрейта : Переменный
Битрейт : 7651 Кбит/сек
Максимальный битрейт : 8000 Кбит/сек
Ширина : 1280 пикселей
Высота : 534 пикселя
Соотношение сторон : 2,40:1
Режим частоты кадров : Постоянный
Частота кадров : 59,880 кадров/сек
Частота кадров в оригинале : 59,940 кадров/сек
Стандарт вещания : PAL
Цветовое пространство : YUV
Субдискретизация насыщенности : 4:2:0
Битовая глубина : 8 бит
Тип развёртки : Прогрессивная
Бит/(Пиксели*Кадры) : 0.187
Размер потока : 6,84 Гбайт (86%)
Заголовок : www.60-fps.org
Язык : English
Default : Да
Forced : Нет
Основные цвета : BT.601 NTSC
Характеристики трансфера : BT.601
Коэффициенты матрицы : BT.601
colour_range : Limited
Аудио #1
Идентификатор : 2
Формат : AC-3
Формат/Информация : Audio Coding 3
Расширение режима : CM (complete main)
Параметр Endianness формата : Big
Идентификатор кодека : A_AC3
Продолжительность : 2 ч. 7 м.
Вид битрейта : Постоянный
Битрейт : 384 Кбит/сек
Каналы : 6 каналов
Расположение каналов : Front: L C R, Side: L R, LFE
Частота : 48,0 КГц
Битовая глубина : 16 бит
Метод сжатия : С потерями
Размер потока : 351 Мбайт (4%)
Заголовок : Дубляж - iTunes
Язык : Russian
Default : Да
Forced : Нет
Аудио #2
Идентификатор : 3
Формат : AC-3
Формат/Информация : Audio Coding 3
Расширение режима : CM (complete main)
Параметр Endianness формата : Big
Идентификатор кодека : A_AC3
Продолжительность : 2 ч. 7 м.
Вид битрейта : Постоянный
Битрейт : 640 Кбит/сек
Каналы : 6 каналов
Расположение каналов : Front: L C R, Side: L R, LFE
Частота : 48,0 КГц
Битовая глубина : 16 бит
Метод сжатия : С потерями
Размер потока : 585 Мбайт (7%)
Заголовок : Eng
Язык : English
Default : Нет
Forced : Нет
Текст #1
Идентификатор : 4
Формат : UTF-8
Идентификатор кодека : S_TEXT/UTF8
Идентификатор кодека/Информация : UTF-8 Plain Text
Заголовок : Forced
Язык : Russian
Default : Да
Forced : Нет
Текст #2
Идентификатор : 5
Формат : UTF-8
Идентификатор кодека : S_TEXT/UTF8
Идентификатор кодека/Информация : UTF-8 Plain Text
Заголовок : Full
Язык : Russian
Default : Нет
Forced : Нет
Текст #3
Идентификатор : 6
Формат : UTF-8
Идентификатор кодека : S_TEXT/UTF8
Идентификатор кодека/Информация : UTF-8 Plain Text
Заголовок : Full
Язык : English
Default : Нет
Forced : Нет
Текст #4
Идентификатор : 7
Формат : UTF-8
Идентификатор кодека : S_TEXT/UTF8
Идентификатор кодека/Информация : UTF-8 Plain Text
Заголовок : SDH
Язык : English
Default : Нет
Forced : Нет
Меню
00:00:00.000 : en:Chapter 01
00:13:01.447 : en:Chapter 02
00:20:36.276 : en:Chapter 03
00:29:30.393 : en:Chapter 04
00:38:44.655 : en:Chapter 05
00:49:33.679 : en:Chapter 06
01:00:05.435 : en:Chapter 07
01:13:39.706 : en:Chapter 08
01:25:57.068 : en:Chapter 09
01:39:15.658 : en:Chapter 10
01:54:31.155 : en:Chapter 11
02:01:40.251 : en:Chapter 12

Релиз подготовлен 60 - fps

[Цитировать]
Владимир 1965

Спасибо за хороший фильм

[Цитировать]
Kryl

7146Спасибо за хороший фильм
пожалуйста .

[Цитировать]
Dred88

Где скорость? Дайте скорости пожалуйста

[Цитировать]
nikolaj 20100

Спасиб! Интересный , увлекательный фильм!
 
Показать сообщения:    

Текущее время: 26-Июн 18:43

Часовой пояс: UTC + 3


Вы не можете начинать темы
Вы не можете отвечать на сообщения
Вы не можете редактировать свои сообщения
Вы не можете удалять свои сообщения
Вы не можете голосовать в опросах
Вы не можете прикреплять файлы к сообщениям
Вы не можете скачивать файлы