[Цитировать]
mimok

Пятница 13-е / Friday the 13th (2009) BDRip 720p | 60fps«Добро пожаловать на Хрустальное озеро»- Информация о фильме
Название: Пятница 13-е
Оригинальное название: Friday the 13th
Год выхода: 2009
Жанр: Ужасы
Режиссер: Маркус Ниспел
В ролях: Джаред Падалецки, Даниэль Панабэйкер, Аманда Риджетти, Трэвис Ван Винкл, Аарон Йу, Дерек Мирс, Джонатан Садовский, Джулианна Гуилл, Бен Фельдман, Арлен Эскарпета, Райан Хансен, Уилла Форд, Ник Меннелл, Америка Оливо, Кайл Дэвис, Ричард Берджи, Крис Коппола, Розмари Ноуэр, Боб Кинг, Нана Визитор, Стефани Родс
Описание фильма:
Молодые друзья Уитни, Майк, Ричи, Аманда и Уэйд заблудились в лесах около заброшенного лагеря «Хрустальное озеро». Когда их любопытство взяло верх, они решили посетить то место, где когда-то обитал убийца-психопат. Тем временем Трент приглашает друзей: Джену, Брии, Чеви, Челси, Лоуренса и Нолана в его хижину, расположенную у озера, на уикэнд, полный секса, выпивки и наркотиков...
Страна: США
Студия: Paramount Pictures, New Line Cinema
Продолжительность: 01:37:10
Перевод: Дублированный (Лицензия)
Субтитры: Отсутствуют

Дата мировой премьеры: 9 февраля 2009, США Лос-Анджелес, Калифорния
Дата российской премьеры: 12 февраля 2009, «Централ Партнершип»
Дата выхода DVD релиза: 14 июля 2009, «Юниверсал Пикчерс Рус»
Дата выхода Blu-Ray релиза: 14 июля 2009, «Юниверсал Пикчерс Рус»
Файл
Формат: MKV
Кодек: MPEG-4 AVC/H.264
Качество: BDRip 720p
Видео: ~ 5866 Кбит/сек, 1280 x 544, 59.94 кадров/сек
Аудио: AC3 5.1, 48.0 KHz, 640 Кбит/сек - Русский

MediaInfo

Общее
Уникальный идентификатор : 210582425040510806529863113260777166456 (0x9E6CB3270EB7C33B8499C3D31CF15678)
Полное имя : D:\Торренты\Friday the 13th 60fps.mkv
Формат : Matroska
Версия формата : Version 2
Размер файла : 4,51 Гбайт
Продолжительность : 1 ч. 37 м.
Общий поток : 6638 Кбит/сек
Название фильма : Friday the 13th (2009) 1080p Blu-Ray CEE
Дата кодирования : UTC 2014-12-28 15:00:19
Программа кодирования : mkvmerge v6.9.1 ('Blue Panther') 64bit built on Apr 18 2014 18:23:38
Библиотека кодирования : libebml v1.3.0 + libmatroska v1.4.1
Видео
Идентификатор : 1
Формат : AVC
Формат/Информация : Advanced Video Codec
Профиль формата : High@L4.1
Параметр CABAC формата : Да
Параметр ReFrames формата : 6 кадров
Идентификатор кодека : V_MPEG4/ISO/AVC
Продолжительность : 1 ч. 37 м.
Битрейт : 5866 Кбит/сек
Ширина : 1280 пикселей
Высота : 544 пикселя
Соотношение сторон : 2,35:1
Режим частоты кадров : Постоянный
Частота кадров : 59,880 кадров/сек
Частота кадров в оригинале : 59,940 кадров/сек
Цветовое пространство : YUV
Субдискретизация насыщенности : 4:2:0
Битовая глубина : 8 бит
Тип развёртки : Прогрессивная
Бит/(Пиксели*Кадры) : 0.141
Размер потока : 3,98 Гбайт (88%)
Заголовок : Release by mimok
Библиотека кодирования : x264 core 125 r2208 d9d2288
Настройки программы : cabac=1 / ref=6 / deblock=0:0:0 / analyse=0x3:0x133 / me=umh / subme=8 / psy=1 / psy_rd=1.00:0.15 / mixed_ref=1 / me_range=20 / chroma_me=1 / trellis=2 / 8x8dct=1 / cqm=0 / deadzone=21,11 / fast_pskip=0 / chroma_qp_offset=-3 / threads=6 / lookahead_threads=1 / sliced_threads=0 / nr=0 / decimate=0 / interlaced=0 / bluray_compat=0 / constrained_intra=0 / bframes=8 / b_pyramid=2 / b_adapt=2 / b_bias=0 / direct=1 / weightb=1 / open_gop=0 / weightp=2 / keyint=600 / keyint_min=59 / scenecut=40 / intra_refresh=0 / rc=crf / mbtree=0 / crf=18.0 / qcomp=0.63 / qpmin=10 / qpmax=51 / qpstep=4 / ip_ratio=1.40 / pb_ratio=1.30 / aq=1:1.20
Default : Да
Forced : Нет
Аудио
Идентификатор : 2
Формат : AC-3
Формат/Информация : Audio Coding 3
Расширение режима : CM (complete main)
Параметр Endianness формата : Big
Идентификатор кодека : A_AC3
Продолжительность : 1 ч. 37 м.
Вид битрейта : Постоянный
Битрейт : 640 Кбит/сек
Каналы : 6 каналов
Расположение каналов : Front: L C R, Side: L R, LFE
Частота : 48,0 КГц
Битовая глубина : 16 бит
Метод сжатия : С потерями
Размер потока : 445 Мбайт (10%)
Заголовок : Dub
Язык : Russian
Default : Да
Forced : Нет

Скринлист

Скриншоты:

[Цитировать]
Fragrance

Класс ! Спасибо)
 
Показать сообщения:    

Текущее время: 03-Дек 16:44

Часовой пояс: UTC + 3


Вы не можете начинать темы
Вы не можете отвечать на сообщения
Вы не можете редактировать свои сообщения
Вы не можете удалять свои сообщения
Вы не можете голосовать в опросах
Вы не можете прикреплять файлы к сообщениям
Вы не можете скачивать файлы