[Цитировать]
mimok

Путешествие 2: Таинственный остров / Journey 2: The Mysterious Island (2012) BDRip 720p | 60fps«Поверь в невозможное - открой невероятное!»- Информация о фильме
Название: Путешествие 2: Таинственный остров
Оригинальное название: Journey 2: The Mysterious Island
Год выхода: 2012
Жанр: Фантастика, фэнтези, боевик, комедия, приключения, семейный
Режиссер: Брэд Пейтон
Продюсер: Бо Флинн, Шарлотта Клэй Хаггинс, Трип Винсон
В ролях: Дуэйн Джонсон, Джош Хатчерсон, Ванесса Энн Хадженс, Майкл Кейн, Луис Гусман, Кристин Дэвис, Анна Колвелл, Стивен Кодилл, Брэнском Ричмонд, Уолтер Бэнксон
Описание фильма:
На этот раз Шон Андерсон получает закодированный сигнал с просьбой о помощи, причем с загадочного острова, из места, где никакого острова и быть не может. Там обитают странные формы жизни, скрываются горы золота, смертоносные вулканы и не одна ошеломляющая тайна. Отчиму Шона, не сумевшему остановить его, ничего не остается, как тоже присоединиться к поискам. Вместе с пилотом вертолета и его прекрасной и решительной дочерью им предстоит найти остров, спасти его одинокого обитателя и немедленно покинуть это место, прежде чем землетрясение скроет остров под водой и похоронит навеки его сокровища.
Страна: США
Студия: New Line Cinema
Продолжительность: 01:34:11
Перевод: Дублированный (Лицензия)
Субтитры: Вшитые, отключаемые
Язык субтитров: Русский (Full), Английский (Full)

Дата мировой премьеры:19 января 2012
Дата российской премьеры:9 февраля 2012, «Каро-Премьер»
Дата выхода DVD/Blu-Ray релиза:28 мая 2012, «CP Дистрибуция»
Файл
Формат: MKV
Кодек: MPEG-4 AVC/H.264
Качество: BDRip 720p
Видео: ~ 8750 Кбит/сек, 1280 x 720, 59.940 кадров/сек
Аудио: AC3 5.1, 48.0 KHz, 640 Кбит/сек - Русский

MediaInfo

Общее
Уникальный идентификатор : 176056174942916339374737781700336075531 (0x84732F9890408A2CAD8944D1C848C30B)
Полное имя : E:\Торренты\Journey 2. The Mysterious Island 60fps.mkv
Формат : Matroska
Версия формата : Version 4 / Version 2
Размер файла : 6,30 Гбайт
Продолжительность : 1 ч. 34 м.
Общий поток : 9581 Кбит/сек
Название фильма : Journey 2: The Mysterious Island (2012) Blu-ray Disc
Дата кодирования : UTC 2015-11-01 15:59:37
Программа кодирования : mkvmerge v6.9.1 ('Blue Panther') 64bit built on Apr 18 2014 18:23:38
Библиотека кодирования : libebml v1.3.0 + libmatroska v1.4.1
Видео
Идентификатор : 1
Формат : AVC
Формат/Информация : Advanced Video Codec
Профиль формата : High@L4.1
Параметр CABAC формата : Да
Параметр ReFrames формата : 6 кадров
Идентификатор кодека : V_MPEG4/ISO/AVC
Продолжительность : 1 ч. 34 м.
Битрейт : 8750 Кбит/сек
Ширина : 1280 пикселей
Высота : 720 пикселей
Соотношение сторон : 16:9
Режим частоты кадров : Постоянный
Частота кадров : 59,880 кадров/сек
Частота кадров в оригинале : 59,940 кадров/сек
Цветовое пространство : YUV
Субдискретизация насыщенности : 4:2:0
Битовая глубина : 8 бит
Тип развёртки : Прогрессивная
Бит/(Пиксели*Кадры) : 0.159
Размер потока : 5,76 Гбайт (91%)
Заголовок : Release by mimok
Библиотека кодирования : x264 core 130 r2273 b3065e6
Настройки программы : cabac=1 / ref=6 / deblock=1:0:0 / analyse=0x3:0x133 / me=umh / subme=8 / psy=1 / psy_rd=1.00:0.15 / mixed_ref=1 / me_range=20 / chroma_me=1 / trellis=2 / 8x8dct=1 / cqm=0 / deadzone=21,11 / fast_pskip=0 / chroma_qp_offset=-3 / threads=6 / lookahead_threads=2 / sliced_threads=0 / nr=0 / decimate=0 / interlaced=0 / bluray_compat=0 / constrained_intra=0 / bframes=8 / b_pyramid=2 / b_adapt=2 / b_bias=0 / direct=1 / weightb=1 / open_gop=0 / weightp=2 / keyint=250 / keyint_min=25 / scenecut=40 / intra_refresh=0 / rc=crf / mbtree=0 / crf=18.0 / qcomp=0.63 / qpmin=10 / qpmax=51 / qpstep=4 / ip_ratio=1.40 / pb_ratio=1.30 / aq=1:1.20
Default : Да
Forced : Нет
Аудио
Идентификатор : 2
Формат : AC-3
Формат/Информация : Audio Coding 3
Расширение режима : CM (complete main)
Параметр Endianness формата : Big
Идентификатор кодека : A_AC3
Продолжительность : 1 ч. 34 м.
Вид битрейта : Постоянный
Битрейт : 640 Кбит/сек
Каналы : 6 каналов
Расположение каналов : Front: L C R, Side: L R, LFE
Частота : 48,0 КГц
Битовая глубина : 16 бит
Метод сжатия : С потерями
Размер потока : 431 Мбайт (7%)
Заголовок : Dub
Язык : Russian
Default : Да
Forced : Нет
Текст #1
Идентификатор : 3
Формат : UTF-8
Идентификатор кодека : S_TEXT/UTF8
Идентификатор кодека/Информация : UTF-8 Plain Text
Заголовок : Full
Язык : Russian
Default : Да
Forced : Нет
Текст #2
Идентификатор : 4
Формат : UTF-8
Идентификатор кодека : S_TEXT/UTF8
Идентификатор кодека/Информация : UTF-8 Plain Text
Заголовок : full
Язык : English
Default : Нет
Forced : Нет
Скриншоты:

Релиз подготовлен 60 - fps

[Цитировать]
rembo1410

спасибо
 
Показать сообщения:    

Текущее время: 21-Сен 11:37

Часовой пояс: UTC + 3


Вы не можете начинать темы
Вы не можете отвечать на сообщения
Вы не можете редактировать свои сообщения
Вы не можете удалять свои сообщения
Вы не можете голосовать в опросах
Вы не можете прикреплять файлы к сообщениям
Вы не можете скачивать файлы